Ссылка на приватное зеркало нашего сайта всего за 1$. Внимание количество ограничено!!!

2 сезон

iTunes

1 сезон

1

iTunes

iTunes

iTunes

1 сезон

RePack

30

ИГРА 18+

pack

ВАЖНО

!!Акция!!

Alien_RageХит недели

RePack

MK11
pack

Забери бонус

RePack

jed

!!Акция!!

Alien_Rage

RePack

fifa19

RePack

Assassins Creed: Odyssey

RePack

NEED FOR SPEED™ PAYBACK

4 сезон

9 сезон

Бесстыжие 9 сезон

Все сериалы

все сериалы на PB.wtf

RePack

FAR CRY 5
  

Путешествия Гулливера / Gulliver's Travels (Макс Флейшер / Max Fleischer) [1939 г., Полнометражный мультфильм, DVDRip] [AVO] (Володарский) + [AVO] (Живов) + [VO] (неизвестный) + [MVO] pb.wtf

Путешествия Гулливера через торрент pb.wtf

Размер: 1.37 GB | Добавлен: 7 лет 2 мес. назад | Торрент скачан:126 раз
Скачать  

01-08-2013 19:57 Путешествия Гулливера Скачать торрент  

Путешествия Гулливера / Gulliver's Travels

Год выхода: 1939
Жанр: детский, семейный, анимация, мульфильм
Страна: США
Студия: Paramount Pictures
Продолжительность: 01:16:22
Перевод №1: Авторский (одноголосый закадровый) [Леонид Володарский]
Перевод №2: Авторский (одноголосый закадровый) [Юрий Живов]
Перевод №3: Одноголосый (закадровый) [неизвестный переводчик]
Перевод №4: Профессиональный (многоголосый закадровый)
Русские субтитры: нет

Режиссер: Дэйв Фляйшер /Dave Fleischer

В ролях: Jessica Dragonette, Лэнни Росс, Pinto Colvig, Джек Мерсер, Сэм Паркер

Описание: После кораблекрушения молодой Гулливер оказался на неизвестном острове в плену у жителей страны Лилипутия. Само название страны говорит о том, как выглядят ее обитатели. Вначале жители Лилипутии встречают Гулливера вполне приветливо. И вот он узнает, что Лилипутия находится в состоянии войны с соседним островом Блефуску. Однако после того как он использовал свой гигантский рост, чтобы организовать секретное свидание принца Песто с его возлюбленной принцессой Мариной, Гулливера стали считать шпионом…
Сейчас только настоящий подвиг может положить конец этой изнурительной войне между двумя соперничающими королевствами, населенными крошечными жителями…




Качество: DVDRip
Кодек: AVI
Видео кодек XviD
Аудио кодек MP3
Видео: 720x544 (1.32:1), 25 fps, XviD build 47 ~1953 kbps avg, 0.20 bit/pixel
Аудио 1: 48 kHz, MPEG Layer 3, 2 ch, ~113.06 kbps avg [Володарский]
Аудио 2: 48 kHz, MPEG Layer 3, 2 ch, ~112.02 kbps avg [Живов]
Аудио 3: 48 kHz, MPEG Layer 3, 2 ch, ~113.43 kbps avg [неизвестный]
Аудио 4: 48 kHz, MPEG Layer 3, 2 ch, ~105.55 kbps avg [Многоголосный]
Аудио 5: 48 kHz, MPEG Layer 3, 2 ch, ~114.23 kbps avg [Английский]
E:INTERNETГулливер.avi
General
Complete name : E:INTERNETГулливер.avi
Format : AVI
Format/Info : Audio Video Interleave
File size : 1.37 GiB
Duration : 1h 16mn
Overall bit rate mode : Variable
Overall bit rate : 2 562 Kbps
Writing application : VirtualDubMod 1.5.4.1 (build 2178/release)
Writing library : VirtualDubMod build 2178/release
Video #0
ID : 0
Format : MPEG-4 Visual
Format profile : Advanced Simple@L5
Format settings, BVOP : 1
Format settings, QPel : No
Format settings, GMC : No warppoints
Format settings, Matrix : Custom
Codec ID : XVID
Codec ID/Hint : XviD
Duration : 1h 16mn
Bit rate : 1 959 Kbps
Width : 720 pixels
Height : 544 pixels
Display aspect ratio : 4:3
Frame rate : 25.000 fps
Color space : YUV
Chroma subsampling : 4:2:0
Bit depth : 8 bits
Scan type : Progressive
Compression mode : Lossy
Bits/(Pixel*Frame) : 0.200
Stream size : 1.04 GiB (76%)
Writing library : XviD 1.2.0.dev47 (UTC 2006-11-01)
Audio #1
ID : 1
Format : MPEG Audio
Format version : Version 1
Format profile : Layer 3
Mode : Joint stereo
Mode extension : MS Stereo
Codec ID : 55
Codec ID/Hint : MP3
Duration : 1h 16mn
Bit rate mode : Variable
Bit rate : 113 Kbps
Nominal bit rate : 128 Kbps
Channel(s) : 2 channels
Sampling rate : 48.0 KHz
Compression mode : Lossy
Stream size : 61.7 MiB (4%)
Alignment : Aligned on interleaves
Interleave, duration : 24 ms (0.60 video frame)
Interleave, preload duration : 499 ms
Writing library : LAME3.97
Encoding settings : -m j -V 4 -q 2 -lowpass 17 --abr 128
Audio #2
ID : 2
Format : MPEG Audio
Format version : Version 1
Format profile : Layer 3
Mode : Joint stereo
Mode extension : MS Stereo
Codec ID : 55
Codec ID/Hint : MP3
Duration : 1h 16mn
Bit rate mode : Variable
Bit rate : 112 Kbps
Nominal bit rate : 128 Kbps
Channel(s) : 2 channels
Sampling rate : 48.0 KHz
Compression mode : Lossy
Stream size : 61.2 MiB (4%)
Alignment : Aligned on interleaves
Interleave, duration : 24 ms (0.60 video frame)
Interleave, preload duration : 510 ms
Writing library : LAME3.97
Encoding settings : -m j -V 4 -q 2 -lowpass 17 --abr 128
Audio #3
ID : 3
Format : MPEG Audio
Format version : Version 1
Format profile : Layer 3
Mode : Joint stereo
Mode extension : MS Stereo
Codec ID : 55
Codec ID/Hint : MP3
Duration : 1h 16mn
Bit rate mode : Variable
Bit rate : 113 Kbps
Nominal bit rate : 128 Kbps
Channel(s) : 2 channels
Sampling rate : 48.0 KHz
Compression mode : Lossy
Stream size : 61.9 MiB (4%)
Alignment : Aligned on interleaves
Interleave, duration : 24 ms (0.60 video frame)
Interleave, preload duration : 521 ms
Writing library : LAME3.97
Encoding settings : -m j -V 4 -q 2 -lowpass 17 --abr 128
Audio #4
ID : 4
Format : MPEG Audio
Format version : Version 1
Format profile : Layer 3
Mode : Joint stereo
Mode extension : MS Stereo
Codec ID : 55
Codec ID/Hint : MP3
Duration : 1h 16mn
Bit rate mode : Variable
Bit rate : 106 Kbps
Nominal bit rate : 128 Kbps
Channel(s) : 2 channels
Sampling rate : 48.0 KHz
Compression mode : Lossy
Stream size : 57.6 MiB (4%)
Alignment : Aligned on interleaves
Interleave, duration : 24 ms (0.60 video frame)
Interleave, preload duration : 483 ms
Writing library : LAME3.97
Encoding settings : -m j -V 4 -q 2 -lowpass 17 --abr 128
Audio #5
ID : 5
Format : MPEG Audio
Format version : Version 1
Format profile : Layer 3
Mode : Joint stereo
Mode extension : MS Stereo
Codec ID : 55
Codec ID/Hint : MP3
Duration : 1h 16mn
Bit rate mode : Variable
Bit rate : 114 Kbps
Nominal bit rate : 128 Kbps
Channel(s) : 2 channels
Sampling rate : 48.0 KHz
Compression mode : Lossy
Stream size : 62.4 MiB (4%)
Alignment : Aligned on interleaves
Interleave, duration : 24 ms (0.60 video frame)
Interleave, preload duration : 524 ms
Writing library : LAME3.97
Encoding settings : -m j -V 4 -q 2 -lowpass 17 --abr 128
pb.wtf



Скачать Путешествия Гулливера через торрент http://s017.radikal.ru/i423/1308/b2/f32acdc756ac.jpg Скачать фильм Путешествия Гулливера через торрент бесплантно в хорошем качестве Описание: После кораблекрушения молодой Гулливер оказался на неизвестном острове в плену у жителей страны Лилипутия. Само название страны ... 10 10 7
Info! Золотая раздача, скачанное не засчитывается.
Торрент: Зарегистрирован [2013-08-01 19:57] · скачан: 126 раз
Статус: √ проверено
Размер: 1.37 GB
Как cкачать? Как скачать Путешествия Гулливера через торрент | qTorrent

28-11-2019 20:33  

Отключить всю рекламу на сайте

    Дорогой пользователь! Огромная просьба, поблагодарите релизера, оцените раздачу и оставьте свои комментарий, если Вы скачали Путешествия Гулливера через торрент бесплатно! Внесите свою лепту в развитие PiratBit!
    Комментировать посты могут только пользователи прошедшие не сложную регистрацию
    Показать сообщения:    

    Путешествия Гулливера через торрент
    Скачать бесплатно Путешествия Гулливера
    Путешествия Гулливера скачать торрент
    Путешествия Гулливера смотреть онлайн
    Cкачать фильм Путешествия Гулливера бесплатно
    Путешествия Гулливера скачать торрент в хорошем качестве
    Путешествия Гулливера смотреть онлайн бесплатно в хорошем качестве


    Вы не можете начинать темы
    Вы не можете отвечать на сообщения
    Вы не можете редактировать свои сообщения
    Вы не можете удалять свои сообщения
    Вы не можете голосовать в опросах
    Вы не можете прикреплять файлы к сообщениям
    Вы можете скачивать файлы