1 сезон

1 сезон

iTunes

1

КиноПоиск HD

Кинопоиск HD

iTunes

13

1 сезон

RePack

30

Новинка

ВАЖНО

ИГРА 18+

pack

RePack

MK11
pack

Легкие деньги

RePack

jed

RePack

fifa19

RePack

RDR2

RePack

NEED FOR SPEED™ PAYBACK

4 сезон

9 сезон

Бесстыжие 9 сезон

Все сериалы

все сериалы на PB.wtf

RePack

FAR CRY 5
  
Magnet ссылка

Потрошитель / Тед Банди / Ted Bundy / Bundy (Мэттью Брайт / Matthew Bright) [2002, США, Великобритания, триллер, драма, криминал, биография, DVDRip] MVO pb.wtf

Потрошитель через торрент pb.wtf

Размер: 1.46 GB | Добавлен: 7 лет 8 мес. назад | Торрент скачан:119 раз
Скачать  

01-08-2013 20:08 Потрошитель Скачать торрент  

Потрошитель / Ted Bundy

«Not every serial killer fits the profile.»

  • Год выпуска:2002
  • Страна:Великобритания, США
  • Жанр:триллер, драма, криминал, биография
  • Продолжительность: 01:35:02
  • Перевод:Профессиональный (многоголосый, закадровый)

  • Субтитры: Нет
    • Режиссер:Мэттью Брайт / Matthew Bright

  • В ролях:Майкл Рейли Бурк (Ted Bundy), Боти Блисс (Lee), Джулианна МакКарти (Professor), Дженнифер Тисдейл (Pretty Girl), Майкл Сантос (Man at the Window), Анна Ли Вустер (Girl Attacked on Street), Стефани Брасс (Julie), Тришиа Диксон (Vincennes), Медоу Систо (Welch), Эрик ДаРе (Male Partygoer), Мелисса Шмидт (Female Partygoer), Дебора Оффнер (Beverly)
    • Описание:
      Он изнасиловал и убил 150 человек. Многие годы никто не решался подробно рассказать о его чудовищных деяниях, его именем пугали детей. Тед Банди.
      Любимый сын, прилежный студент, верный друг - мрачный психопат, грязный извращенец, кровавый мясник.

  • Рейтинг
    kinopoisk.ru: 6.268 (448)
    imdb.com: 5.80 (4 443)
    MPAA: R - Лицам до 17 лет обязательно присутствие взрослого
    • Качество:DVDRip
    • Формат:AVI
    • Видео кодек: XviD
    • Аудио кодек: AC3
    • Видео: XviD, 720x400 (16:9), 1743 kbps, 25 fps, 0,242 bpp
    • Аудио: AC3 / 5.1 / 48 kHz / 448 kbps / 16 bit

    General
    Complete name : D:ТорентыTed_Bundy_1.46_by_max1wq.avi
    Format : AVI
    Format/Info : Audio Video Interleave
    File size : 1.46 GiB
    Duration : 1h 35mn
    Overall bit rate : 2 202 Kbps
    Writing application : VirtualDubMod 1.5.10.2 (build 2540/release)
    Writing library : VirtualDubMod build 2540/release

    Video
    ID : 0
    Format : MPEG-4 Visual
    Format profile : Advanced Simple@L5
    Format settings, BVOP : 2
    Format settings, QPel : No
    Format settings, GMC : No warppoints
    Format settings, Matrix : Custom
    Codec ID : XVID
    Codec ID/Hint : XviD
    Duration : 1h 35mn
    Bit rate : 1 744 Kbps
    Width : 720 pixels
    Height : 400 pixels
    Display aspect ratio : 16:9
    Frame rate : 25.000 fps
    Color space : YUV
    Chroma subsampling : 4:2:0
    Bit depth : 8 bits
    Scan type : Progressive
    Compression mode : Lossy
    Bits/(Pixel*Frame) : 0.242
    Stream size : 1.16 GiB (79%)
    Writing library : XviD 65

    Audio
    ID : 1
    Format : AC-3
    Format/Info : Audio Coding 3
    Mode extension : CM (complete main)
    Codec ID : 2000
    Duration : 1h 35mn
    Bit rate mode : Constant
    Bit rate : 448 Kbps
    Channel(s) : 6 channels
    Channel positions : Front: L C R, Side: L R, LFE
    Sampling rate : 48.0 KHz
    Bit depth : 16 bits
    Compression mode : Lossy
    Stream size : 305 MiB (20%)
    Alignment : Split accross interleaves
    Interleave, duration : 40 ms (1.00 video frame)
    Interleave, preload duration : 500 ms

    © Оформление&Постер by Vetalpb.wtf



  • Скачать Потрошитель через торрент http://i1.imageban.ru/out/2013/08/02/93b8362f9b94f6fe851111b18d27f17d.png Скачать фильм Потрошитель через торрент бесплантно в хорошем качестве Описание:Он изнасиловал и убил 150 человек. Многие годы никто не решался подробно рассказать о его чудовищных деяниях, его именем пугали ... 10 10 6
    Info! Золотая раздача, скачанное не засчитывается.
    Торрент: Зарегистрирован [2013-08-01 20:08] · скачан: 119 раз
    Статус: √ проверено
    Размер: 1.46 GB
    Как cкачать? Как скачать Потрошитель через торрент | UTorrent

    28-11-2019 20:33  

    Отключить всю рекламу на сайте

      Дорогой пользователь! Огромная просьба, поблагодарите релизера, оцените раздачу и оставьте свои комментарий, если Вы скачали Потрошитель через торрент бесплатно! Внесите свою лепту в развитие PiratBit!
      Комментировать посты могут только пользователи прошедшие не сложную регистрацию
      Показать сообщения:    

      Потрошитель через торрент
      Скачать бесплатно Потрошитель
      Потрошитель скачать торрент
      Потрошитель смотреть онлайн
      Cкачать фильм Потрошитель бесплатно
      Потрошитель скачать торрент в хорошем качестве
      Потрошитель смотреть онлайн бесплатно в хорошем качестве


      Вы не можете начинать темы
      Вы не можете отвечать на сообщения
      Вы не можете редактировать свои сообщения
      Вы не можете удалять свои сообщения
      Вы не можете голосовать в опросах
      Вы не можете прикреплять файлы к сообщениям
      Вы можете скачивать файлы