Ссылка на приватное зеркало всего за 1$. Внимание количество ограничено!!!

iTunes

iTunes

iTunes

1

iTunes

iTunes

iTunes

iTunes

iTunes

30
pack

$ от Little Big

ВАЖНО

!!Акция!!

Alien_RageХит недели

RePack

Resident Evil 21

ИГРА 18+

pack

RePack

jed

!!Акция!!

Alien_Rage

RePack

fifa19

RePack

Assassins Creed: Odyssey

RePack

NEED FOR SPEED™ PAYBACK

4 сезон

9 сезон

Бесстыжие 9 сезон

Все сериалы

все сериалы на PB.wtf

RePack

FAR CRY 5
  

Император / Emperor (Питер Веббер / Peter Webber) [ 2012 , США, Япония , драма, военный, история , WEB-DL 1080p ] VO [VANO] pb.wtf

Император через торрент pb.wtf

Размер: 4.15 GB | Добавлен: 6 лет 11 мес. назад | Торрент скачан:85 раз
Скачать  

01-08-2013 23:48 Император Скачать торрент  

Император / Emperor

«Japan 1945: General Douglas MacArthur was given a mission to decide the fate of a nation, the guilt of a leader, and the true price of peace.»

  • Год выпуска:2012
  • Страна:США, Япония
  • Жанр:драма, военный, история
  • Продолжительность: 01:41:06
  • Перевод:Любительский (одноголосый) [VANO]

  • Субтитры: Нет
    • Режиссер:Питер Веббер / Peter Webber

  • В ролях:Мэттью Фокс (General Bonner Fellers), Томми Ли Джонс (General Douglas MacArthur), Ерико Хатсуне (Aya Shimada), Тосиюки Нисида (General Kajima), Масаёси Ханеда (Takahashi), Каори Момои (Mitsuko Kajima), Колин Мой (General Richter), Масатоши Накамура (Prince Konoe), Масато Ибу (Koichi Kido), Исао Натсуяги (Teizaburo Sekiya), Такаторо Катаока (Emperor Hirohito), Аарон Джексон (Lt Col. Rogers)
    • Описание:
      Фильм рассказывает о днях, последовавших за капитуляцией Японии во Второй мировой войне, когда правителем Страны Восходящего солнца де-факто являлся генерал Даглас МакАртур. Одному из экспертов-японистов, генералу Боннеру Феллерсу, поручено найти ответ на непростой вопрос: следует ли признать японского императора Хирохито военным преступником и повесить?

  • Рейтинг
    kinopoisk.ru: 7.000 (42)
    imdb.com: 6.30 (701)
    MPAA: PG-13 - Детям до 13 лет просмотр не желателен
    • Качество: WEB-DL 1080p [PSiG]
    • Формат:MKV
    • Видео кодек: AVC
    • Аудио кодек: AC3
    • Видео: MPEG-4 AVC, 4692 Кбит/с, 1908x808
    • Аудио: Русский -AC3 / 5.1 / 48 kHz / 448 kbps
    • Аудио: английский- AC3 / 5.1 / 48 kHz / 384 kbps

    Формат : Matroska
    Версия формата : Version 2
    Размер файла : 4,15 Гбайт
    Продолжительность : 1 ч. 45 м.
    Общий поток : 5636 Кбит/сек
    Название фильма : -=ODESSIT=-
    Дата кодирования : UTC 2013-07-30 13:54:41
    Программа кодирования : mkvmerge v4.9.1 ('Ich will') сборка от Jul 11 2011 23:53:15
    Библиотека кодирования : libebml v1.2.1 + libmatroska v1.1.1

    Видео
    Идентификатор : 1
    Формат : AVC
    Формат/Информация : Advanced Video Codec
    Профиль формата : High@L4.0
    Параметр CABAC формата : Да
    Параметр ReFrames формата : 5 кадров
    Идентификатор кодека : V_MPEG4/ISO/AVC
    Продолжительность : 1 ч. 45 м.
    Битрейт : 4692 Кбит/сек
    Ширина : 1908 пикселей
    Высота : 808 пикселей
    Соотношение сторон : 2,35:1
    Частота кадров : 23,976 кадра/сек
    Цветовое пространство : YUV
    Субдискретизация насыщенности : 4:2:0
    Битовая глубина : 8 бит
    Тип развёртки : Прогрессивная
    Бит/(Пиксели*Кадры) : 0.127
    Размер потока : 3,46 Гбайт (83%)
    Язык : English
    Default : Да
    Forced : Нет
    Основные цвета : BT.709-5, BT.1361, IEC 61966-2-4, SMPTE RP177
    Характеристики трансфера : BT.709-5, BT.1361
    Коэффициенты матрицы : BT.709-5, BT.1361, IEC 61966-2-4 709, SMPTE RP177

    Аудио #1
    Идентификатор : 2
    Формат : AC-3
    Формат/Информация : Audio Coding 3
    Расширение режима : CM (complete main)
    Параметр Endianness формата : Big
    Идентификатор кодека : A_AC3
    Продолжительность : 1 ч. 45 м.
    Вид битрейта : Постоянный
    Битрейт : 448 Кбит/сек
    Каналы : 6 каналов
    Расположение каналов : Front: L C R, Side: L R, LFE
    Частота : 48,0 КГц
    Битовая глубина : 16 бит
    Метод сжатия : С потерями
    Размер потока : 338 Мбайт (8%)
    Язык : Russian
    Default : Нет
    Forced : Да

    Аудио #2
    Идентификатор : 3
    Формат : AC-3
    Формат/Информация : Audio Coding 3
    Расширение режима : CM (complete main)
    Параметр Endianness формата : Big
    Идентификатор кодека : A_AC3
    Продолжительность : 1 ч. 45 м.
    Вид битрейта : Постоянный
    Битрейт : 384 Кбит/сек
    Каналы : 6 каналов
    Расположение каналов : Front: L C R, Side: L R, LFE
    Частота : 48,0 КГц
    Битовая глубина : 16 бит
    Метод сжатия : С потерями
    Размер потока : 290 Мбайт (7%)
    Язык : English
    Default : Да
    Forced : Нет

    Меню
    00:00:00.000 : en:Chapter 1
    00:07:00.000 : en:Chapter 2
    00:14:44.000 : en:Chapter 3
    00:19:05.000 : en:Chapter 4
    00:29:14.000 : en:Chapter 5
    00:37:36.000 : en:Chapter 6
    00:47:05.000 : en:Chapter 7
    00:55:45.000 : en:Chapter 8
    01:06:57.000 : en:Chapter 9
    01:16:26.000 : en:Chapter 10
    01:25:09.000 : en:Chapter 11
    01:32:29.000 : en:Chapter 12
    01:39:15.000 : en:Chapter 13

    © Оформление by Vetalpb.wtf



  • Скачать Император через торрент http://pic.kartinco.top/images/3/gtzcnxbt2f.png Скачать фильм Император через торрент бесплантно в хорошем качестве Описание:Фильм рассказывает о днях, последовавших за капитуляцией Японии во Второй мировой войне, когда правителем Страны Восходящего ... 9.1 10 8
    Info! Золотая раздача, скачанное не засчитывается.
    Торрент: Зарегистрирован [2013-08-01 23:48] · скачан: 85 раз
    Статус: √ проверено
    Размер: 4.15 GB
    Как cкачать? Как скачать Император через торрент | qTorrent

    % Раздел Тема Автор DL S | L
    Фильмы (HD 720p, 1080p) (48-60 fps) [ 4.88 GB ] Мумия: Гробница Императора Драконов / The Mummy: Tomb of the Dragon Emperor [2008 BDRip 720p ] slaventi-69 Скачать
    1 | 0
    T Фильмы (мультфильмы) cо спонсором показа (Новинки AVI/MKV) [ 3.71 GB ] Меч императора / The Emperor's Sword / Ding Qin sword in turbulent times [2020 исторический WEB-DL 720p] MVO [КОЛОБОК] bober100 Скачать
    3 | 0
    T Фильмы (мультфильмы) cо спонсором показа (Новинки AVI/MKV) [ 1.37 GB ] Меч императора / The Emperor's Sword / Ding Qin sword in turbulent times [2020 исторический WEB-DLRip] MVO [КОЛОБОК] bober100 Скачать
    2 | 0
    Фильмы [HD 720p, 1080p] (Хороший звук DUB, MVO) [ 9.39 GB ] Видок: Охотник на призраков / Видок: Император Парижа / L'Empereur de Paris [2018 история BDRip 1080p] +MVO [HDRezka Studio] bober100 Скачать
    2 | 0
    Фильмы 2018 [DVDrip, WEB-DLRip, HDrip] (DUB, MVO) [ 1.98 GB ] Видок: Охотник на призраков / Видок: Император Парижа / L'Empereur de Paris [2018 история BDRip-AVC] +MVO [HDRezka Studio] bober100 Скачать
    2 | 0
    Фильмы (HD 720p, 1080p) (48-60 fps) [ 3.68 GB ] Видок: Охотник на призраков / Видок: Император Парижа / L'Empereur de Paris [2018 история BDRip - HEVC 1080p 10 bit 60 FPS] dd2d3 Скачать
    3 | 0
    Фильмы 2018 [DVDrip, WEB-DLRip, HDrip] (DUB, MVO) [ 1.46 GB ] Видок: Охотник на призраков / Видок: Император Парижа / L'Empereur de Paris [2018 история BDRip] bober100 Скачать
    3 | 0

    28-11-2019 20:33  

    Отключить всю рекламу на сайте

      Дорогой пользователь! Огромная просьба, поблагодарите релизера, оцените раздачу и оставьте свои комментарий, если Вы скачали Император через торрент бесплатно! Внесите свою лепту в развитие PiratBit!
      Комментировать посты могут только пользователи прошедшие не сложную регистрацию
      Показать сообщения:    

      Император через торрент
      Скачать бесплатно Император
      Император скачать торрент
      Император смотреть онлайн
      Cкачать фильм Император бесплатно
      Император скачать торрент в хорошем качестве
      Император смотреть онлайн бесплатно в хорошем качестве


      Вы не можете начинать темы
      Вы не можете отвечать на сообщения
      Вы не можете редактировать свои сообщения
      Вы не можете удалять свои сообщения
      Вы не можете голосовать в опросах
      Вы не можете прикреплять файлы к сообщениям
      Вы можете скачивать файлы