Ссылка на приватное зеркало нашего сайта всего за 1$. Внимание количество ограничено!!!

2 сезон

iTunes

1 сезон

1

iTunes

iTunes

iTunes

1 сезон

RePack

30

ИГРА 18+

pack

ВАЖНО

!!Акция!!

Alien_RageХит недели

RePack

MK11
pack

Забери бонус

RePack

jed

!!Акция!!

Alien_Rage

RePack

fifa19

RePack

Assassins Creed: Odyssey

RePack

NEED FOR SPEED™ PAYBACK

4 сезон

9 сезон

Бесстыжие 9 сезон

Все сериалы

все сериалы на PB.wtf

RePack

FAR CRY 5
  

Адское дитя / Hell Baby (Роберт Бен Гарант , Томас Леннон ) [ 2013 , США , ужасы, комедия , HDRip , VO] pb.wtf

Адское дитя через торрент pb.wtf

Размер: 1.5 GB | Добавлен: 7 лет 2 мес. назад | Торрент скачан:386 раз
Скачать  

02-08-2013 07:37 Адское дитя Скачать торрент  

Адское дитя / Hell Baby
  • Год выпуска: 2013
  • Страна: США
  • Жанр: ужасы, комедия
  • Продолжительность: 01:34:00
  • Перевод:Любительский (одноголосый, закадровый) - den904, перевод - Антон Кедров
  • Субтитры: Нет
  • Режиссер: Роберт Бен Гарант / Robert Ben Garant, Томас Леннон / Thomas Lennon
  • В ролях: Роб Кордри (Jack), Лесли Бибб (Vanessa), Кигэн Майкл Ки (F'Resnel), Рики Линдхоум (Marjorie), Роб Хюбел, Пол Шеер, Роберт Бен Гарант, Томас Леннон, Майкл Йен Блэк, Кумэйл Нанджиани, Дэйв Холмс, Бриттни Элгер (Bullet Sucking Nurse)
    Описание: Молодая пара, со дня на день ждущая появления на свет своего первенца, въезжает в, мягко выражаясь, не самый новый и не самый крепкий в Новом Орлеане дом. Переезд ознаменовывается тем, что вскоре будущие родители уже вызывают к себе элитных ватиканских экзорцистов, надеясь, что они спасут их от младенца-демона.
  • Рейтинг
    kinopoisk.ru: 5.500 (43)
    imdb.com: 5.10 (775)
    MPAA: R - Лицам до 17 лет обязательно присутствие взрослого
  • Качество: HDRip
  • Формат: AVI
  • Видео кодек: XviD
  • Аудио кодек: AC3
  • Видео: XviD, 720x400 (16:9), 1698 kbps, 23,976 fps, 0,246 bpp
  • Аудио №1: AC3 / 2.0 / 48 kHz / 192 kbps / 16 bit
  • Аудио №2: AC3 / 5.1 / 48 kHz / 384 kbps / 16 bit

    General
    Complete name : D:Hell.Baby(2013)L1.HDRip.avi
    Format : AVI
    Format/Info : Audio Video Interleave
    File size : 1.50 GiB
    Duration : 1h 34mn
    Overall bit rate : 2 289 Kbps
    Writing application : VirtualDubMod 1.5.10.3 | www.virtualdub-fr.org || (build 2550/release)
    Writing library : VirtualDubMod build 2550/release

    Video
    ID : 0
    Format : MPEG-4 Visual
    Format profile : Advanced Simple@L5
    Format settings, BVOP : 2
    Format settings, QPel : Yes
    Format settings, GMC : No warppoints
    Format settings, Matrix : Default (H.263)
    Muxing mode : Packed bitstream
    Codec ID : XVID
    Codec ID/Hint : XviD
    Duration : 1h 34mn
    Bit rate : 1 699 Kbps
    Width : 720 pixels
    Height : 400 pixels
    Display aspect ratio : 16:9
    Frame rate : 23.976 fps
    Color space : YUV
    Chroma subsampling : 4:2:0
    Bit depth : 8 bits
    Scan type : Progressive
    Compression mode : Lossy
    Bits/(Pixel*Frame) : 0.246
    Stream size : 1.12 GiB (74%)
    Writing library : XviD 1.2.1 (UTC 2008-12-04)

    Audio #1
    ID : 1
    Format : AC-3
    Format/Info : Audio Coding 3
    Mode extension : CM (complete main)
    Codec ID : 2000
    Duration : 1h 34mn
    Bit rate mode : Constant
    Bit rate : 192 Kbps
    Channel(s) : 2 channels
    Channel positions : Front: L R
    Sampling rate : 48.0 KHz
    Bit depth : 16 bits
    Compression mode : Lossy
    Stream size : 129 MiB (8%)
    Alignment : Split accross interleaves
    Interleave, duration : 42 ms (1.00 video frame)
    Interleave, preload duration : 500 ms

    Audio #2
    ID : 2
    Format : AC-3
    Format/Info : Audio Coding 3
    Mode extension : CM (complete main)
    Codec ID : 2000
    Duration : 1h 34mn
    Bit rate mode : Constant
    Bit rate : 384 Kbps
    Channel(s) : 6 channels
    Channel positions : Front: L C R, Side: L R, LFE
    Sampling rate : 48.0 KHz
    Bit depth : 16 bits
    Compression mode : Lossy
    Stream size : 258 MiB (17%)
    Alignment : Split accross interleaves
    Interleave, duration : 42 ms (1.00 video frame)
    Interleave, preload duration : 500 ms
    pb.wtf



  • Скачать Адское дитя через торрент http://i6.imageban.ru/out/2013/08/02/3a517f9cf5ed9eabb746a1d187e78ace.png Скачать фильм Адское дитя через торрент бесплантно в хорошем качестве Описание: Молодая пара, со дня на день ждущая появления на свет своего первенца, въезжает в, мягко выражаясь, не самый новый и не самый ... 9.3 10 16
    Info! Золотая раздача, скачанное не засчитывается.
    Торрент: Зарегистрирован [2013-08-02 07:40] · скачан: 386 раз
    Статус: √ проверено
    Размер: 1.5 GB
    Как cкачать? Как скачать Адское дитя через торрент | qTorrent

    % Раздел Тема Автор DL S | L
    Фильмы 2013 (Звук TS, Cam, VO, DVO) [ 1.45 GB ] Адское дитя / Hell Baby [ 2013 WEB-DLRip ] VO Ворон Скачать
    1 | 0
    Фильмы (WEB-DL 720p, 1080p) [ 2.89 GB ] Адское дитя / Hell Baby [ 2013 WEB-DL 720p] VO Ворон Скачать
    1 | 0

    28-11-2019 20:33  

    Отключить всю рекламу на сайте

    02-08-2013 08:43 Адское дитя Скачать торрент  

    в переводе мат присутствует?pb.wtf



    02-08-2013 09:10 Адское дитя Скачать торрент  

    качать только ради первого скрина?pb.wtf



    02-08-2013 10:03 Адское дитя Скачать торрент  

    У мну идет фильмец ентот без перевода pb.wtf



    02-08-2013 10:58 Адское дитя Скачать торрент  

    Тема раскрытаpb.wtf



      Дорогой пользователь! Огромная просьба, поблагодарите релизера, оцените раздачу и оставьте свои комментарий, если Вы скачали Адское дитя через торрент бесплатно! Внесите свою лепту в развитие PiratBit!
      Комментировать посты могут только пользователи прошедшие не сложную регистрацию
      Показать сообщения:    

      Адское дитя через торрент
      Скачать бесплатно Адское дитя
      Адское дитя скачать торрент
      Адское дитя смотреть онлайн
      Cкачать фильм Адское дитя бесплатно
      Адское дитя скачать торрент в хорошем качестве
      Адское дитя смотреть онлайн бесплатно в хорошем качестве


      Вы не можете начинать темы
      Вы не можете отвечать на сообщения
      Вы не можете редактировать свои сообщения
      Вы не можете удалять свои сообщения
      Вы не можете голосовать в опросах
      Вы не можете прикреплять файлы к сообщениям
      Вы можете скачивать файлы