Ссылка на приватное зеркало всего за 1$. Внимание количество ограничено!!!

iTunes

iTunes

iTunes

1

iTunes

iTunes

iTunes

iTunes

iTunes

30
pack

$ от Little Big

ВАЖНО

!!Акция!!

Alien_RageХит недели

RePack

Resident Evil 21

ИГРА 18+

pack

RePack

jed

!!Акция!!

Alien_Rage

RePack

fifa19

RePack

Assassins Creed: Odyssey

RePack

NEED FOR SPEED™ PAYBACK

4 сезон

9 сезон

Бесстыжие 9 сезон

Все сериалы

все сериалы на PB.wtf

RePack

FAR CRY 5
  

Голливудский мусор / Garbage (Hollywood Trash) (Филипп Волкен) [2013 г., драма, комедия, WEB-DLRip 720p, Профессиональный двухголосый] pb.wtf

Голливудский мусор через торрент pb.wtf

Размер: 2.04 GB | Добавлен: 6 лет 11 мес. назад | Торрент скачан:56 раз
Скачать  

02-08-2013 17:08 Голливудский мусор Скачать торрент  

Голливудский мусор / Garbage (Hollywood Trash)Год выпуска: 2013
Страна: США
Жанр: драма, комедия,
Продолжительность: 01:22:55
Перевод: Профессиональный (двухголосый) [Ольга Плетнёва и Павел Кипнес]
Субтитры: Английские

Режиссер: Филипп Волкен
Продюссер: Алина Шрайбман, Владимир Алеников, Кайл Соня
Сценарий: Филипп Волкен

Бюджет: $1 500 000
Премьера в мире: 7 мая 2013





В ролях: Майкл Мэдсен, Дэрил Ханна, Аланна Юбак, Уильям Болдуин, Стивен Бауэр, Серена Лориэн, Джед Риис, Майкл Бердсли, Шанди Финнесси, Бри Конден,

Описание: Двое закадычных друзей, водителей мусоровоза, обслуживающего Голливуд, с утра просыпаются знаменитыми: в мусоре они находят Оскара, лучшего исполнителя второстепенных ролей…

Доп. информация: Просмотр не рекомендуется лицам моложе 18 лет

Качество: WEB-DLRip 720p
Формат: MKV
Видео кодек: MPEG4
Аудио кодек: AC3
Видео: 1280x720 (16:9), 23.976 fps, MPEG-4 AVC ~ 3000 kbps avg, 0.136 bit/pixel
Аудио#1: 48 kHz / AC3 / 2.0 / 192 kbps / 16 bit[Russian]
Аудио#2: 48 kHz, AC3 Dolby Digital, 3/2 (L,C,R,l,r) + LFE ch, ~384 kbps[English]скриншот   скриншот   скриншот   скриншот   скриншот   скриншот  




Общее
Уникальный идентификатор : 243600758779877870873340972747820674728 (0xB743CCB15681B6348A870CA0C4B4AEA8)
Полное имя : C:VideoGollivudskij.musor.2013.P.720p.WEB-DL.mkv
Формат : Matroska
Версия формата : Version 2
Размер файла : 2,04 Гбайт
Продолжительность : 1 ч. 22 м.
Общий поток : 3525 Кбит/сек
Дата кодирования : UTC 2013-06-17 20:36:13
Программа кодирования : mkvmerge v2.9.8 ('C'est le bon') built on Nov 20 2009 13:01:15
Библиотека кодирования : libebml v0.7.9 + libmatroska v0.8.1

Видео
Идентификатор : 1
Формат : AVC
Формат/Информация : Advanced Video Codec
Профиль формата : High@L4.1
Параметр CABAC формата : Да
Параметр ReFrames формата : 8 кадров
Идентификатор кодека : V_MPEG4/ISO/AVC
Продолжительность : 1 ч. 22 м.
Битрейт : 3000 Кбит/сек
Ширина : 1280 пикселей
Высота : 720 пикселей
Соотношение сторон : 16:9
Режим частоты кадров : Постоянный
Частота кадров : 23,976 кадра/сек
Цветовое пространство : YUV
Субдискретизация насыщенности : 4:2:0
Битовая глубина : 8 бит
Тип развёртки : Прогрессивная
Бит/(Пиксели*Кадры) : 0.136
Размер потока : 1,67 Гбайт (82%)
Библиотека кодирования : x264 core 130 r2273 b3065e6
Настройки программы : cabac=1 / ref=8 / deblock=1:0:0 / analyse=0x3:0x133 / me=umh / subme=9 / psy=1 / psy_rd=1.00:0.00 / mixed_ref=1 / me_range=16 / chroma_me=1 / trellis=2 / 8x8dct=1 / cqm=0 / deadzone=21,11 / fast_pskip=1 / chroma_qp_offset=-2 / threads=16 / lookahead_threads=1 / sliced_threads=0 / nr=0 / decimate=1 / interlaced=0 / bluray_compat=0 / constrained_intra=0 / bframes=3 / b_pyramid=2 / b_adapt=2 / b_bias=0 / direct=3 / weightb=1 / open_gop=0 / weightp=2 / keyint=240 / keyint_min=23 / scenecut=40 / intra_refresh=0 / rc_lookahead=60 / rc=abr / mbtree=1 / bitrate=3000 / ratetol=1.0 / qcomp=0.60 / qpmin=0 / qpmax=69 / qpstep=4 / ip_ratio=1.40 / aq=1:1.00
Язык : English
Default : Нет
Forced : Нет

Аудио #1
Идентификатор : 2
Формат : AC-3
Формат/Информация : Audio Coding 3
Расширение режима : CM (complete main)
Параметр Endianness формата : Big
Идентификатор кодека : A_AC3
Продолжительность : 1 ч. 22 м.
Вид битрейта : Постоянный
Битрейт : 192 Кбит/сек
Каналы : 2 канала
Расположение каналов : Front: L R
Частота : 48,0 КГц
Битовая глубина : 16 бит
Метод сжатия : С потерями
Размер потока : 114 Мбайт (5%)
Язык : Russian
Default : Да
Forced : Да

Аудио #2
Идентификатор : 3
Формат : AC-3
Формат/Информация : Audio Coding 3
Расширение режима : CM (complete main)
Параметр Endianness формата : Big
Идентификатор кодека : A_AC3
Продолжительность : 1 ч. 22 м.
Вид битрейта : Постоянный
Битрейт : 384 Кбит/сек
Каналы : 6 каналов
Расположение каналов : Front: L C R, Side: L R, LFE
Частота : 48,0 КГц
Битовая глубина : 16 бит
Метод сжатия : С потерями
Размер потока : 228 Мбайт (11%)
Язык : English
Default : Нет
Forced : Нет

Текст
Идентификатор : 4
Формат : UTF-8
Идентификатор кодека : S_TEXT/UTF8
Идентификатор кодека/Информация : UTF-8 Plain Text
Язык : English
Default : Нет
Forced : Нет

Меню
00:00:00.000 : en:Chapter 1
00:08:05.000 : en:Chapter 2
00:17:42.000 : en:Chapter 3
00:27:20.000 : en:Chapter 4
00:35:32.000 : en:Chapter 5
00:46:01.000 : en:Chapter 6
00:54:17.000 : en:Chapter 7
01:05:50.000 : en:Chapter 8
01:15:41.000 : en:Chapter 9
01:20:19.000 : en:Chapter 10


Голливудский мусор скачать торрент


pb.wtf



Скачать Голливудский мусор через торрент http://i50.fastpic.ru/big/2013/0802/8f/c171f4f794c8019414b802c2e61e1d8f.jpg Скачать фильм Голливудский мусор через торрент бесплантно в хорошем качестве Описание: Двое закадычных друзей, водителей мусоровоза, обслуживающего Голливуд, с утра просыпаются знаменитыми: в мусоре они находят ... 10 10 3
Info! Золотая раздача, скачанное не засчитывается.
Торрент: Зарегистрирован [2013-08-02 17:08] · скачан: 56 раз
Статус: # сомнительно
Размер: 2.04 GB
Как cкачать? Как скачать Голливудский мусор через торрент | qTorrent

% Раздел Тема Автор DL S | L
Фильмы 2013 [DVDrip, WEB-DLRip, HDrip] [ 1.37 GB ] Голливудский мусор / Garbage [2013 WEB-DLRip] MVO [НТВ Ворон Скачать
1 | 0

28-11-2019 20:33  

Отключить всю рекламу на сайте

    Дорогой пользователь! Огромная просьба, поблагодарите релизера, оцените раздачу и оставьте свои комментарий, если Вы скачали Голливудский мусор через торрент бесплатно! Внесите свою лепту в развитие PiratBit!
    Комментировать посты могут только пользователи прошедшие не сложную регистрацию
    Показать сообщения:    

    Голливудский мусор через торрент
    Скачать бесплатно Голливудский мусор
    Голливудский мусор скачать торрент
    Голливудский мусор смотреть онлайн
    Cкачать фильм Голливудский мусор бесплатно
    Голливудский мусор скачать торрент в хорошем качестве
    Голливудский мусор смотреть онлайн бесплатно в хорошем качестве


    Вы не можете начинать темы
    Вы не можете отвечать на сообщения
    Вы не можете редактировать свои сообщения
    Вы не можете удалять свои сообщения
    Вы не можете голосовать в опросах
    Вы не можете прикреплять файлы к сообщениям
    Вы можете скачивать файлы