Всегда рабочее зеркало без VPN и Proxy просто перед .vidak.icu напиши любое слово или цифру, Пример http://eo5z.vidak.icu

MVO

2 сезон

1 сезон

1

1 сезон

iTunes

2 сезон

13

1 сезон

Deluxe

pack

Рекомендуем

Пиратка

30

ВАЖНО

RePack

MK11

RePack

jed

RePack

fifa19

RePack

RDR2

RePack

NEED FOR SPEED™ PAYBACK

Кинопоиск HD

6 сезон

 Острые козырьки 6 сезон

Все сериалы

все сериалы на PB.wtf

RePack

FAR CRY 5

Anonymous, нам критически не хватает 5601 руб. на оплату серверов и переферии за Апрель, помоги нам пожалуйста, вся надежда только на тебя. В благодарность мы отключим тебе всю рекламу на сайте!

×
  
Magnet ссылка

Воины-оборотни / War Wolves (Майкл Уорт / Michael Worth) [2009, США, фантастика, DVDRip, MVO ] pb.wtf

Воины-оборотни через торрент pb.wtf

Размер: 1.46 GB | Добавлен: 8 лет 9 мес. назад | Торрент скачан:159 раз
Смотреть онлайн Воины-оборотни | Скачать    Ребята, помогите собрать деньги на оплату серверов!!!

02-08-2013 17:46 Воины-оборотни Скачать торрент  


Воины-оборотни / War Wolves

«They say war changes you... They have no idea.»

  • Год выпуска:2009
  • Страна:США
  • Жанр:фантастика, боевик
  • Продолжительность: 01:40:52
  • Перевод:Профессиональный (многоголосый, закадровый)

  • Субтитры: Нет
    • Режиссер:Майкл Уорт / Michael Worth

  • В ролях:Джон Сэксон (Tony Ford), Тим Томерсон (Frank Bergman), Майкл Уорт (Jake Gabriel), Эдриенн Барбо (Gail Cash), Наташа Алам (Erika Moore), Кристи Клэйнос (Justine), Сири Барук (Casey), Дэн Сауфуорф (Clay), Арт ЛаФлёр (Leo), Заша Мэмет (Rudy), Алекс Баллар (Andrew Jensen), Мартин Коув (Malick)
    • Описание:
      Джек возглавляет спецотряд, отправленный в глубинку США, чтобы выследить солдата, который был инфицирован вирусом оборотня, превращающего человека в волка. Немного позднее Джек узнаёт, что три женщины из его отряда так же были инфицированы и почти трансформировались в волчиц. Злобные силы оборотней и отряд Форда схлестнулись меж собой в битве за спасение человечества...

    • Качество:DVDRip
    • Формат:AVI
    • Видео кодек: XviD
    • Аудио кодек: AC3
    • Видео: XviD, 720x544 (4:3), 1682 kbps, 25 fps, 0,172 bpp
    • Аудио: AC3 / 5.1 / 48 kHz / 384 kbps / 16 bit

    General
    Complete name : D:Торентыvoennue_volki_1.46__by_bm11.avi
    Format : AVI
    Format/Info : Audio Video Interleave
    File size : 1.46 GiB
    Duration : 1h 40mn
    Overall bit rate : 2 077 Kbps
    Writing application : VirtualDubMod 1.5.10.2 (build 2540/release)
    Writing library : VirtualDubMod build 2540/release

    Video
    ID : 0
    Format : MPEG-4 Visual
    Format profile : Advanced Simple@L5
    Format settings, BVOP : 1
    Format settings, QPel : No
    Format settings, GMC : No warppoints
    Format settings, Matrix : Default (MPEG)
    Codec ID : XVID
    Codec ID/Hint : XviD
    Duration : 1h 40mn
    Bit rate : 1 683 Kbps
    Width : 720 pixels
    Height : 544 pixels
    Display aspect ratio : 4:3
    Frame rate : 25.000 fps
    Color space : YUV
    Chroma subsampling : 4:2:0
    Bit depth : 8 bits
    Scan type : Progressive
    Compression mode : Lossy
    Bits/(Pixel*Frame) : 0.172
    Stream size : 1.19 GiB (81%)
    Writing library : XviD 1.2.0.dev47 (UTC 2006-11-01)

    Audio
    ID : 1
    Format : AC-3
    Format/Info : Audio Coding 3
    Mode extension : CM (complete main)
    Codec ID : 2000
    Duration : 1h 40mn
    Bit rate mode : Constant
    Bit rate : 384 Kbps
    Channel(s) : 6 channels
    Channel positions : Front: L C R, Side: L R, LFE
    Sampling rate : 48.0 KHz
    Bit depth : 16 bits
    Compression mode : Lossy
    Stream size : 277 MiB (18%)
    Alignment : Split accross interleaves
    Interleave, duration : 40 ms (1.00 video frame)
    Interleave, preload duration : 500 ms


    © Оформление&Постер by Vetalpb.wtf



  • Скачать Воины-оборотни через торрент http://i1.imageban.ru/out/2013/08/02/64c6060e9995a0bf30be838619571638.png Скачать, смотреть онлайн Воины-оборотни бесплантно в хорошем качестве Описание:Джек возглавляет спецотряд, отправленный в глубинку США, чтобы выследить солдата, который был инфицирован вирусом оборотня, ... 9.3 10 11
    Info! Золотая раздача, скачанное не засчитывается.
    Торрент: Зарегистрирован [2013-08-02 17:46] · скачан: 159 раз
    Статус: √ проверено
    Размер: 1.46 GB
    Как cкачать? Как скачать Воины-оборотни через торрент | UTorrent

    % Раздел Тема Автор DL S | L
    Фильмы 2009 [ 2.05 GB ] Воины-оборотни / War Wolves [2009 DVDRip] tyry999 Скачать
    1 | 0

    28-11-2019 20:33  

    Отключить всю рекламу на сайте

      Дорогой пользователь! Огромная просьба, поблагодарите релизера, оцените раздачу и оставьте свои комментарий, если Вы скачали Воины-оборотни через торрент бесплатно!
      Комментировать посты могут только пользователи прошедшие не сложную регистрацию
      Показать сообщения:    

      Воины-оборотни через торрент
      Скачать бесплатно Воины-оборотни
      Воины-оборотни скачать торрент
      Воины-оборотни смотреть онлайн
      Cкачать фильм Воины-оборотни бесплатно
      Воины-оборотни скачать торрент в хорошем качестве
      Воины-оборотни смотреть онлайн бесплатно в хорошем качестве


      Вы не можете начинать темы
      Вы не можете отвечать на сообщения
      Вы не можете редактировать свои сообщения
      Вы не можете удалять свои сообщения
      Вы не можете голосовать в опросах
      Вы не можете прикреплять файлы к сообщениям
      Вы можете скачивать файлы