Ссылка на приватное зеркало нашего сайта всего за 1$. Внимание количество ограничено!!!

2 сезон

iTunes

1 сезон

1

iTunes

iTunes

iTunes

1 сезон

RePack

30

ИГРА 18+

pack

ВАЖНО

!!Акция!!

Alien_RageХит недели

RePack

MK11
pack

Забери бонус

RePack

jed

!!Акция!!

Alien_Rage

RePack

fifa19

RePack

Assassins Creed: Odyssey

RePack

NEED FOR SPEED™ PAYBACK

4 сезон

9 сезон

Бесстыжие 9 сезон

Все сериалы

все сериалы на PB.wtf

RePack

FAR CRY 5
  

Дорожный патруль / Drogówka (Войчех Смажовски / Wojciech Smarzowski) [2013, Польша, драма, комедия, криминал, DVDRip, VO ] pb.wtf

Дорожный патруль через торрент pb.wtf

Размер: 1.37 GB | Добавлен: 7 лет 2 мес. назад | Торрент скачан:91 раз
Скачать  

02-08-2013 19:46 Дорожный патруль Скачать торрент  

Дорожный патруль / Drogówka


  • Год выпуска:2013
  • Страна:Польша
  • Жанр:драма, комедия, криминал
  • Продолжительность: 01:52:21
  • Перевод:Любительский (одноголосый)) (озвучил zamez по субтитрам Naumanns и Арт-группы STOP!Genocide)

  • Субтитры: Нет
    • Режиссер:Войчех Смажовски / Wojciech Smarzowski

  • В ролях:Бартломей Топа (Ryszard Król), Аркадиуш Якубик (Petrycki), Юлия Киёвская (Madecka), Эрик Любош (Banas), Роберт Вабих (Hawryluk), Яцек Брачак (Trybus), Марчин Дорочиньский (Lisowski), Мариан Дзендзель (Golab), Агата Кулеша (Jadzia), Изабела Куна (Ewa), Мацей Штур (Zareba), Адам Воронович (Czech)
    • Описание:
      История семерых закадычных друзей-полицейских. Один из команды погибает при невыясненных обстоятельствах. В убийстве коллеги обвиняют сержанта Рышарда Кролиса. Пытаясь докопаться до истины, он проводит собственное расследование, в результате которого обнаруживает паутину лжи и коррупции, в которой погрязли высокопоставленные чиновники.

  • Рейтинг
    kinopoisk.ru: 5.773 (38)
    imdb.com: 7.70 (716)
      ВНИМАНИЕ! Фильм содержит сцены насилия, секса и ненормативную лексику!
    • Качество:DVDRip
    • Формат:AVI
    • Видео кодек: XviD
    • Аудио кодек: AC3
    • Видео: XviD, 720x304 (2.35:1), 1283 kbps, 25 fps, 0,235 bpp
    • Аудио: AC3 / 5.1 / 48 kHz / 448 kbps / 16 bit


    General
    Complete name : D:ТорентыDrogowka.2013.DVDRip.avi
    Format : AVI
    Format/Info : Audio Video Interleave
    File size : 1.37 GiB
    Duration : 1h 52mn
    Overall bit rate : 1 742 Kbps
    Writing application : VirtualDubMod 1.5.10.2 (build 2540/release)
    Writing library : VirtualDubMod build 2540/release

    Video
    ID : 0
    Format : MPEG-4 Visual
    Format profile : Advanced Simple@L5
    Format settings, BVOP : 2
    Format settings, QPel : No
    Format settings, GMC : No warppoints
    Format settings, Matrix : Default (H.263)
    Codec ID : XVID
    Codec ID/Hint : XviD
    Duration : 1h 52mn
    Bit rate : 1 284 Kbps
    Width : 720 pixels
    Height : 304 pixels
    Display aspect ratio : 2.35:1
    Frame rate : 25.000 fps
    Color space : YUV
    Chroma subsampling : 4:2:0
    Bit depth : 8 bits
    Scan type : Progressive
    Compression mode : Lossy
    Bits/(Pixel*Frame) : 0.235
    Stream size : 1.01 GiB (74%)
    Writing library : XviD 1.2.1 (UTC 2008-12-04)

    Audio
    ID : 1
    Format : AC-3
    Format/Info : Audio Coding 3
    Mode extension : CM (complete main)
    Codec ID : 2000
    Duration : 1h 52mn
    Bit rate mode : Constant
    Bit rate : 448 Kbps
    Channel(s) : 6 channels
    Channel positions : Front: L C R, Side: L R, LFE
    Sampling rate : 48.0 KHz
    Bit depth : 16 bits
    Compression mode : Lossy
    Stream size : 360 MiB (26%)
    Alignment : Split accross interleaves
    Interleave, duration : 40 ms (1.00 video frame)
    Interleave, preload duration : 500 ms


    © Оформление by Vetalpb.wtf



  • Скачать Дорожный патруль через торрент http://pic.kartinco.top/images/3/ymzpkg1a27.png Скачать фильм Дорожный патруль через торрент бесплантно в хорошем качестве Описание:История семерых закадычных друзей-полицейских. Один из команды погибает при невыясненных обстоятельствах. В убийстве коллеги ... 9 10 12
    Info! Золотая раздача, скачанное не засчитывается.
    Торрент: Зарегистрирован [2013-08-02 19:46] · скачан: 91 раз
    Статус: √ проверено
    Размер: 1.37 GB
    Как cкачать? Как скачать Дорожный патруль через торрент | qTorrent

    28-11-2019 20:33  

    Отключить всю рекламу на сайте

      Дорогой пользователь! Огромная просьба, поблагодарите релизера, оцените раздачу и оставьте свои комментарий, если Вы скачали Дорожный патруль через торрент бесплатно! Внесите свою лепту в развитие PiratBit!
      Комментировать посты могут только пользователи прошедшие не сложную регистрацию
      Показать сообщения:    

      Дорожный патруль через торрент
      Скачать бесплатно Дорожный патруль
      Дорожный патруль скачать торрент
      Дорожный патруль смотреть онлайн
      Cкачать фильм Дорожный патруль бесплатно
      Дорожный патруль скачать торрент в хорошем качестве
      Дорожный патруль смотреть онлайн бесплатно в хорошем качестве


      Вы не можете начинать темы
      Вы не можете отвечать на сообщения
      Вы не можете редактировать свои сообщения
      Вы не можете удалять свои сообщения
      Вы не можете голосовать в опросах
      Вы не можете прикреплять файлы к сообщениям
      Вы можете скачивать файлы