Ссылка на приватное зеркало нашего сайта всего за 1$. Внимание количество ограничено!!!

2 сезон

iTunes

1 сезон

1

iTunes

iTunes

iTunes

1 сезон

RePack

30

ИГРА 18+

pack

ВАЖНО

!!Акция!!

Alien_RageХит недели

RePack

MK11
pack

Забери бонус

RePack

jed

!!Акция!!

Alien_Rage

RePack

fifa19

RePack

Assassins Creed: Odyssey

RePack

NEED FOR SPEED™ PAYBACK

4 сезон

9 сезон

Бесстыжие 9 сезон

Все сериалы

все сериалы на PB.wtf

RePack

FAR CRY 5
  

Двойной КОПец / Cop Out (Кевин Смит / Kevin Smith) [2010, США, боевик, комедия, криминал, BDRip] VO WOLRONE (перевод Гоблина) pb.wtf

Двойной КОПец через торрент pb.wtf

Размер: 1.37 GB | Добавлен: 7 лет 2 мес. назад | Торрент скачан:369 раз
Скачать  

02-08-2013 22:29 Двойной КОПец Скачать торрент  

Двойной КОПец / Cop Out

«Стоять! Бояться!»

  • Год выпуска:2010
  • Страна:США
  • Жанр:боевик, комедия, криминал
  • Продолжительность: 01:47:30
  • Перевод:Любительский (одноголосый) WOLRONE Перевод: Дмитрий Пучков (Goblin)

  • Субтитры: Нет
    • Режиссер:Кевин Смит / Kevin Smith

  • В ролях:Брюс Уиллис (Jimmy Monroe), Трэйси Морган (Paul Hodges), Адам Броди (Barry Mangold), Кевин Поллак (Hunsaker), Гильермо Диас (Poh Boy), Шонн Уильям Скотт (Dave), Мишель Трахтенберг (Ava), Джейсон Ли (Roy), Рашида Джонс (Debbie), Кори Фернандез (Juan), Хуан Карлос Эрнандез (Raul), Джейсон Харт (Youth 1)
    • Описание:
      История двух давних напарников - нью-йоркских полицейских, занятых поисками очень редкой и чертовски дорогой бейсбольной карточки, украденной у одного из них. Они вынуждены противостоять беспощадному гангстеру, просто помешанному на коллекционных вещицах.
      Джимми, всю жизнь проработавший в полиции, возлагал на пропавшую карточку все свои надежды, так как только с помощью нее он мог бы оплатить предстоящую свадьбу дочери, а Пол, его так называемый «напарник в борьбе с преступностью», столь зацикливается на предполагаемой неверности своей жены, что ему становится уже непросто отслеживать пропажу.

  • Рейтинг
    kinopoisk.ru: 6.095 (22 083)
    imdb.com: 5.60 (56 549)
    MPAA: R - Лицам до 17 лет обязательно присутствие взрослого
      Присутствует ненормативная лексика
    • Качество:BDRip
    • Формат:AVI
    • Видео кодек: XviD
    • Аудио кодек: AC3
    • Видео: XviD, 720x304 (2.35:1), 1553 kbps, 23,976 fps, 0,296 bpp
    • Аудио: MP3 / 2.0 / 44 kHz / 256 kbps /


    General
    Complete name : D:ТорентыCop.Out.2010.AVO.Wolrone-Goblin.avi
    Format : AVI
    Format/Info : Audio Video Interleave
    File size : 1.37 GiB
    Duration : 1h 47mn
    Overall bit rate : 1 819 Kbps
    Movie name : Cop.Out.2010.AVO.Wolrone-Goblin
    Director : smallz
    Writing application : VirtualDubMod 1.5.10.2 (build 2540/release)
    Writing library : VirtualDubMod build 2540/release
    :

    Video
    ID : 0
    Format : MPEG-4 Visual
    Format profile : Advanced Simple@L5
    Format settings, BVOP : 1
    Format settings, QPel : No
    Format settings, GMC : No warppoints
    Format settings, Matrix : Custom
    Codec ID : XVID
    Codec ID/Hint : XviD
    Duration : 1h 47mn
    Bit rate : 1 554 Kbps
    Width : 720 pixels
    Height : 304 pixels
    Display aspect ratio : 2.35:1
    Frame rate : 23.976 fps
    Color space : YUV
    Chroma subsampling : 4:2:0
    Bit depth : 8 bits
    Scan type : Progressive
    Compression mode : Lossy
    Bits/(Pixel*Frame) : 0.296
    Stream size : 1.17 GiB (85%)
    Writing library : XviD 1.2.1 (UTC 2008-12-04)

    Audio
    ID : 1
    Format : MPEG Audio
    Format version : Version 1
    Format profile : Layer 3
    Mode : Joint stereo
    Codec ID : 55
    Codec ID/Hint : MP3
    Duration : 1h 47mn
    Bit rate mode : Constant
    Bit rate : 256 Kbps
    Channel(s) : 2 channels
    Sampling rate : 44.1 KHz
    Compression mode : Lossy
    Stream size : 197 MiB (14%)
    Alignment : Aligned on interleaves
    Interleave, duration : 42 ms (1.00 video frame)
    Interleave, preload duration : 522 ms


    © Оформление by Vetalpb.wtf



  • Скачать Двойной КОПец через торрент http://pic.kartinco.top/images/3/f859bbgh2z.jpg Скачать фильм Двойной КОПец через торрент бесплантно в хорошем качестве Описание:История двух давних напарников - нью-йоркских полицейских, занятых поисками очень редкой и чертовски дорогой бейсбольной карточки, ... 9.3 10 15
    Info! Золотая раздача, скачанное не засчитывается.
    Торрент: Зарегистрирован [2013-08-02 22:29] · скачан: 369 раз
    Статус: √ проверено
    Размер: 1.37 GB
    Как cкачать? Как скачать Двойной КОПец через торрент | qTorrent

    % Раздел Тема Автор DL S | L
    Фильмы с авторской озвучкой [ 1.34 GB ] Двойной КОПец / Cop Out [2010 BDRip] AVO + Subs Ворон Скачать
    2 | 0
    Фильмы 2010 [ 702 MB ] Двойной КОПец / Cop Out [2010 ... HDRip] Venxxx Скачать
    1 | 0
    Фильмы 2010 [ 702 MB ] Двойной КОПец / Cop Out [2010 HDRip]Гоблин azagoth_666 Скачать
    1 | 0
    Фильмы [HD 720p, 1080p] (Хороший звук DUB, MVO) [ 4.36 GB ] Двойной КОПец / Cop Out [2010 ... BDRip] Shmel Скачать
    1 | 0
    Фильмы с авторской озвучкой [ 2 GB ] Двойной КОПец / Cop Out [2010 DVDRip AVO ] IceDevil71 Скачать
    1 | 0
    Фильмы 2010 [ 2.05 GB ] Двойной КОПец / Cop Out [2010 BDRip лицензия] DEVI Скачать
    1 | 0
    Фильмы (DVD фильмы) [ 4.37 GB ] Двойной КОПец / Cop Out [2010 DVD5 лицензия] nickson-82 Скачать
    1 | 0

    28-11-2019 20:33  

    Отключить всю рекламу на сайте

      Дорогой пользователь! Огромная просьба, поблагодарите релизера, оцените раздачу и оставьте свои комментарий, если Вы скачали Двойной КОПец через торрент бесплатно! Внесите свою лепту в развитие PiratBit!
      Комментировать посты могут только пользователи прошедшие не сложную регистрацию
      Показать сообщения:    

      Двойной КОПец через торрент
      Скачать бесплатно Двойной КОПец
      Двойной КОПец скачать торрент
      Двойной КОПец смотреть онлайн
      Cкачать фильм Двойной КОПец бесплатно
      Двойной КОПец скачать торрент в хорошем качестве
      Двойной КОПец смотреть онлайн бесплатно в хорошем качестве


      Вы не можете начинать темы
      Вы не можете отвечать на сообщения
      Вы не можете редактировать свои сообщения
      Вы не можете удалять свои сообщения
      Вы не можете голосовать в опросах
      Вы не можете прикреплять файлы к сообщениям
      Вы можете скачивать файлы