Ссылка на приватное зеркало нашего сайта всего за 1$. Внимание количество ограничено!!!

2 сезон

iTunes

1 сезон

1

iTunes

iTunes

iTunes

1 сезон

RePack

30

ИГРА 18+

pack

ВАЖНО

!!Акция!!

Alien_RageХит недели

RePack

MK11
pack

Забери бонус

RePack

jed

!!Акция!!

Alien_Rage

RePack

fifa19

RePack

Assassins Creed: Odyssey

RePack

NEED FOR SPEED™ PAYBACK

4 сезон

9 сезон

Бесстыжие 9 сезон

Все сериалы

все сериалы на PB.wtf

RePack

FAR CRY 5
  

Плохие парни / Bad Boys (Майкл Бэй) [1995 г., боевик, триллер, драма, комедия, криминал, BDRip 1080p, Дубляж] pb.wtf

Плохие парни через торрент pb.wtf

Размер: 7.76 GB | Добавлен: 7 лет 2 мес. назад | Торрент скачан:56 раз
Скачать  

03-08-2013 16:27 Плохие парни Скачать торрент  

Плохие парни / Bad Boys
Год выпуска: 1995
Страна: США
Жанр: боевик, триллер, драма, комедия, криминал,
Продолжительность: 01:58:51
Перевод: Дублированный + Оригинал
Субтитры: Русские, Английские

Режиссер: Майкл Бэй

В ролях: Мартин Лоуренс, Уилл Смит, Теа Леони, Чеки Карио, Джо Пантольяно, Тереза Рэндл, Марж Хелгенбергер, Нестор Серрано, Хулио Оскар Мечосо, Саверио Гуэрра, Майкл Империоли, Анна Левайн-Томпсон, Вик Манни, Фрэнк Джон Хьюз, Майк Киртон, Эммануель Ксереб, Ральф Гонсалес, Лиза Бойл, Марк Маколей, Джои Романо,

Описание: Они — полная противоположность друг друга. Один из них — примерный семьянин и не имеет состояния, другой богат и пользуется всеми благами холостяцкой жизни. Помимо дружбы их объединяет работа в полиции.
Их новое задание — поймать жестокого преступника, укравшего наркотики с секретного склада, а также спасти девушку, которая случайно оказалась на его пути. Но для этого друзьям придется поменяться местами…

Качество: BDRip 1080p
Формат: WMV
Видео кодек: H.264
Аудио кодек: AC3
Видео: (1920x1040), 8070 Kbps, 23.976 fps
Аудио#1: AC-3, 6 ch, 640 kbps (Rus) 48.0 KHz
Аудио#2: AC-3, 6 ch, 640 kbps (Eng) 48.0 KHz

Общее
Уникальный идентификатор : 192931262876811795139351293184454910378 (0x912535AADADE6397885CC8A2E89F61AA)
Полное имя : Плохие парни.1995.BDRip.1080p.Rus.Eng.mkv
Формат : Matroska
Версия формата : Version 2
Размер файла : 7,76 Гбайт
Продолжительность : 1 ч. 58 м.
Общий поток : 9353 Кбит/сек
Название фильма : Плохие парни.1995
Дата кодирования : UTC 2013-06-01 17:35:12
Программа кодирования : mkvmerge v5.8.0 ('No Sleep / Pillow') built on Sep 2 2012 15:37:04
Библиотека кодирования : libebml v1.2.3 + libmatroska v1.3.0

Видео
Идентификатор : 1
Формат : AVC
Формат/Информация : Advanced Video Codec
Профиль формата : High@L4.1
Параметр CABAC формата : Да
Параметр ReFrames формата : 4 кадра
Идентификатор кодека : V_MPEG4/ISO/AVC
Продолжительность : 1 ч. 58 м.
Битрейт : 8070 Кбит/сек
Ширина : 1920 пикселей
Высота : 1040 пикселей
Соотношение сторон : 1,85:1
Режим частоты кадров : Постоянный
Частота кадров : 23,976 кадра/сек
Цветовое пространство : YUV
Субдискретизация насыщенности : 4:2:0
Битовая глубина : 8 бит
Тип развёртки : Прогрессивная
Бит/(Пиксели*Кадры) : 0.169
Размер потока : 6,55 Гбайт (84%)
Заголовок : Rip by Boriy
Библиотека кодирования : x264 core 133 r2334 a3ac64b
Настройки программы : cabac=1 / ref=4 / deblock=1:0:0 / analyse=0x3:0x113 / me=umh / subme=10 / psy=1 / psy_rd=1.00:0.10 / mixed_ref=1 / me_range=32 / chroma_me=1 / trellis=2 / 8x8dct=1 / cqm=0 / deadzone=21,11 / fast_pskip=0 / chroma_qp_offset=-2 / threads=12 / lookahead_threads=1 / sliced_threads=0 / nr=0 / decimate=0 / interlaced=0 / bluray_compat=0 / constrained_intra=0 / bframes=5 / b_pyramid=2 / b_adapt=2 / b_bias=0 / direct=3 / weightb=1 / open_gop=0 / weightp=2 / keyint=240 / keyint_min=23 / scenecut=40 / intra_refresh=0 / rc=2pass / mbtree=0 / bitrate=8070 / ratetol=1.0 / qcomp=0.60 / qpmin=0 / qpmax=69 / qpstep=4 / cplxblur=20.0 / qblur=0.5 / ip_ratio=1.40 / pb_ratio=1.30 / aq=1:0.80
Язык : English
Default : Да
Forced : Нет

Аудио #1
Идентификатор : 2
Формат : AC-3
Формат/Информация : Audio Coding 3
Расширение режима : CM (complete main)
Параметр Endianness формата : Big
Идентификатор кодека : A_AC3
Продолжительность : 1 ч. 58 м.
Вид битрейта : Постоянный
Битрейт : 640 Кбит/сек
Каналы : 6 каналов
Расположение каналов : Front: L C R, Side: L R, LFE
Частота : 48,0 КГц
Битовая глубина : 16 бит
Метод сжатия : С потерями
Размер потока : 544 Мбайт (7%)
Заголовок : Дубляж
Язык : Russian
Default : Да
Forced : Нет

Аудио #2
Идентификатор : 3
Формат : AC-3
Формат/Информация : Audio Coding 3
Расширение режима : CM (complete main)
Параметр Endianness формата : Big
Идентификатор кодека : A_AC3
Продолжительность : 1 ч. 58 м.
Вид битрейта : Постоянный
Битрейт : 640 Кбит/сек
Каналы : 6 каналов
Расположение каналов : Front: L C R, Side: L R, LFE
Частота : 48,0 КГц
Битовая глубина : 16 бит
Метод сжатия : С потерями
Размер потока : 544 Мбайт (7%)
Заголовок : Оригинал
Язык : English
Default : Нет
Forced : Нет

Текст #1
Идентификатор : 4
Формат : UTF-8
Идентификатор кодека : S_TEXT/UTF8
Идентификатор кодека/Информация : UTF-8 Plain Text
Язык : Russian
Default : Нет
Forced : Нет

Текст #2
Идентификатор : 5
Формат : UTF-8
Идентификатор кодека : S_TEXT/UTF8
Идентификатор кодека/Информация : UTF-8 Plain Text
Язык : English
Default : Нет
Forced : Нет

Меню
00:00:00.000 : :Chapter 1
00:06:37.105 : :Chapter 2
00:15:29.303 : :Chapter 3
00:20:50.874 : :Chapter 4
00:29:11.416 : :Chapter 5
00:35:19.992 : :Chapter 6
00:42:19.787 : :Chapter 7
00:50:59.055 : :Chapter 8
00:59:15.718 : :Chapter 9
01:04:30.867 : :Chapter 10
01:13:50.801 : :Chapter 11
01:19:42.486 : :Chapter 12
01:27:59.524 : :Chapter 13
01:33:25.725 : :Chapter 14
01:41:20.616 : :Chapter 15
01:48:48.688 : :Chapter 16

pb.wtf



Скачать Плохие парни через торрент http://pic.kartinco.top/images/3/vrjcufivgu.png Скачать фильм Плохие парни через торрент бесплантно в хорошем качестве Описание: Они — полная противоположность друг друга. Один из них — примерный семьянин и не имеет состояния, другой богат и пользуется всеми ... 10 10 15
Info! Золотая раздача, скачанное не засчитывается.
Торрент: Зарегистрирован [2013-08-03 16:27] · скачан: 56 раз
Статус: √ проверено
Размер: 7.76 GB
Как cкачать? Как скачать Плохие парни через торрент | qTorrent

% Раздел Тема Автор DL S | L
Фильмы 2019-2020 [DVDrip, WEB-DLRip, HDrip] (DUB, MVO) [ 2.18 GB ] Плохие парни навсегда / Bad Boys for Life [2020 BDRip] DUB [ 4К EUR] bober100 Скачать
8 | 0
Фильмы 2019-2020 [DVDrip, WEB-DLRip, HDrip] (DUB, MVO) [ 1.46 GB ] Плохие парни навсегда / Bad Boys for Life [2020 BDRip-AVC] DUB [ Blu-ray 4K EUR] bober100 Скачать
4 | 0
Фильмы 2019-2020 [DVDrip, WEB-DLRip, HDrip] (DUB, MVO) [ 2.91 GB ] Плохие парни навсегда / Bad Boys for Life [2020 BDRip-AVC] DUB [ Blu-ray 4K EUR] bober100 Скачать
2 | 0
Ultra HD (UHD: 2K, 4K, 8K) — видео сверхвысокой чёткости [ 20.08 GB ] Плохие парни навсегда / Bad Boys for Life [2020 UHD BDRip 2160p ] DUB [] +MVO [HDRezka Studio] bober100 Скачать
2 | 0
Ultra HD (UHD: 2K, 4K, 8K) — видео сверхвысокой чёткости [ 55.86 GB ] Плохие парни навсегда / Bad Boys for Life [2020 UHD Blu-Ray 2160p] DUB [] bober100 Скачать
2 | 0
Фильмы (WEB-DL 720p, 1080p) [ 4.24 GB ] Плохие парни навсегда / Bad Boys for Life [2020 WEB-DL 720p] DUB bober100 Скачать
13 | 0
Фильмы [HD 720p, 1080p] (Хороший звук DUB, MVO) [ 5.8 GB ] Плохие парни навсегда / Bad Boys for Life [2020 BDRip 720p] DUB [] +MVO [HDRezka Studio] bober100 Скачать
1 | 0

28-11-2019 20:33  

Отключить всю рекламу на сайте

03-04-2018 10:18 Плохие парни Скачать торрент  

Встаньте на раздачу плзpb.wtf



    Дорогой пользователь! Огромная просьба, поблагодарите релизера, оцените раздачу и оставьте свои комментарий, если Вы скачали Плохие парни через торрент бесплатно! Внесите свою лепту в развитие PiratBit!
    Комментировать посты могут только пользователи прошедшие не сложную регистрацию
    Показать сообщения:    

    Плохие парни через торрент
    Скачать бесплатно Плохие парни
    Плохие парни скачать торрент
    Плохие парни смотреть онлайн
    Cкачать фильм Плохие парни бесплатно
    Плохие парни скачать торрент в хорошем качестве
    Плохие парни смотреть онлайн бесплатно в хорошем качестве


    Вы не можете начинать темы
    Вы не можете отвечать на сообщения
    Вы не можете редактировать свои сообщения
    Вы не можете удалять свои сообщения
    Вы не можете голосовать в опросах
    Вы не можете прикреплять файлы к сообщениям
    Вы можете скачивать файлы