2 сезон

iTunes

1 сезон

1

iTunes

iTunes

iTunes

1 сезон

RePack

30

ИГРА 18+

pack

ВАЖНО

!!Акция!!

Alien_RageХит недели

RePack

MK11
pack

Забери бонус

RePack

jed

!!Акция!!

Alien_Rage

RePack

fifa19

RePack

Assassins Creed: Odyssey

RePack

NEED FOR SPEED™ PAYBACK

4 сезон

9 сезон

Бесстыжие 9 сезон

Все сериалы

все сериалы на PB.wtf

RePack

FAR CRY 5
  

Живописный маршрут / Scenic Route (Кевин Гетц / Kevin Goetz, Майкл Гетц / Michael Goetz) [2013, США, триллер, драма, WEB-DLRip, VO ] pb.wtf

Живописный маршрут через торрент pb.wtf

Размер: 698 MB | Добавлен: 7 лет 2 мес. назад | Торрент скачан:87 раз
Скачать  

03-08-2013 22:18 Живописный маршрут Скачать торрент  

Живописный маршрут / Scenic Route


  • Год выпуска:2013
  • Страна:США
  • Жанр:триллер, драма
  • Продолжительность: 01:26:16
  • Перевод:Любительский (одноголосый)[den904] , перевод [Janetta]

  • Субтитры: Нет
    • Режиссер:Кевин Гетц / Kevin Goetz, Майкл Гетц / Michael Goetz

  • В ролях:Джош Дюамель (Mitchell), Дэн Фоглер (Carter), Миракл Лоури (Joanne), Кристи Бёрсон (Annie), Питер Майкл Гец (Old Man), Джеймс Донован (Tow Truck Driver), Этан Мехер (Cole)
    • Описание:
      В центре истории - два приятеля, которые отправляются в поездку и застревают вдвоем в пустыне. Положение оказывается настолько отчаянным, что оба, понимая, что спасение может никогда не прийти, начинают чуть ли не воевать друг с другом, как физически, так и эмоционально.

  • Рейтинг
    MPAA: R - Лицам до 17 лет обязательно присутствие взрослого
    • Качество:WEB-DLRip
    • Формат:AVI
    • Видео кодек: XviD
    • Аудио кодек:MP3
    • Видео: XviD, 624x336 (1.857), 993 kbps, 23,976 fps, 0,198 bpp
    • Аудио: MP3 / 2.0 / 48 kHz / 128 kbps /


    General
    Complete name : D:ТорентыScenic.route.2013.L1.WEBDLRip.700Mb.avi
    Format : AVI
    Format/Info : Audio Video Interleave
    File size : 698 MiB
    Duration : 1h 26mn
    Overall bit rate : 1 131 Kbps
    Writing application : VirtualDubMod 1.5.10.3 | www.virtualdub-fr.org || (build 2550/release)
    Writing library : VirtualDubMod build 2550/release

    Video
    ID : 0
    Format : MPEG-4 Visual
    Format profile : Advanced Simple@L5
    Format settings, BVOP : 2
    Format settings, QPel : No
    Format settings, GMC : No warppoints
    Format settings, Matrix : Custom
    Codec ID : XVID
    Codec ID/Hint : XviD
    Duration : 1h 26mn
    Bit rate : 994 Kbps
    Width : 624 pixels
    Height : 336 pixels
    Display aspect ratio : 1.857
    Frame rate : 23.976 fps
    Color space : YUV
    Chroma subsampling : 4:2:0
    Bit depth : 8 bits
    Scan type : Progressive
    Compression mode : Lossy
    Bits/(Pixel*Frame) : 0.198
    Stream size : 613 MiB (88%)
    Writing library : XviD 1.2.1 (UTC 2008-12-04)

    Audio
    ID : 1
    Format : MPEG Audio
    Format version : Version 1
    Format profile : Layer 3
    Codec ID : 55
    Codec ID/Hint : MP3
    Duration : 1h 26mn
    Bit rate mode : Constant
    Bit rate : 128 Kbps
    Channel(s) : 2 channels
    Sampling rate : 48.0 KHz
    Compression mode : Lossy
    Stream size : 79.0 MiB (11%)
    Alignment : Aligned on interleaves
    Interleave, duration : 42 ms (1.00 video frame)
    Interleave, preload duration : 504 ms
    Writing library : LAME3.99r
    Encoding settings : -m s -V 4 -q 2 -lowpass 17 -b 128


    © Оформление by Vetalpb.wtf



  • Скачать Живописный маршрут через торрент http://i3.imageban.ru/out/2013/08/04/f8720b1989cbd7cd1b03a6ec19e121ad.png Скачать фильм Живописный маршрут через торрент бесплантно в хорошем качестве Описание:В центре истории - два приятеля, которые отправляются в поездку и застревают вдвоем в пустыне. Положение оказывается настолько ... 7.4 10 5
    Info! Золотая раздача, скачанное не засчитывается.
    Торрент: Зарегистрирован [2013-08-03 22:18] · скачан: 87 раз
    Статус: √ проверено
    Размер: 698 MB
    Как cкачать? Как скачать Живописный маршрут через торрент | qTorrent

    % Раздел Тема Автор DL S | L
    Фильмы (WEB-DL 720p, 1080p) [ 2.91 GB ] Живописный маршрут / Scenic Route [2013 WEB-DLRip 720р][den904] Ворон Скачать
    1 | 0
    Фильмы 2013 (Звук TS, Cam, VO, DVO) [ 1.37 GB ] Живописный маршрут / Scenic Route [2013 WEB-DLRip VO[den904] ] Ворон Скачать
    1 | 0

    28-11-2019 20:33  

    Отключить всю рекламу на сайте

      Дорогой пользователь! Огромная просьба, поблагодарите релизера, оцените раздачу и оставьте свои комментарий, если Вы скачали Живописный маршрут через торрент бесплатно! Внесите свою лепту в развитие PiratBit!
      Комментировать посты могут только пользователи прошедшие не сложную регистрацию
      Показать сообщения:    

      Живописный маршрут через торрент
      Скачать бесплатно Живописный маршрут
      Живописный маршрут скачать торрент
      Живописный маршрут смотреть онлайн
      Cкачать фильм Живописный маршрут бесплатно
      Живописный маршрут скачать торрент в хорошем качестве
      Живописный маршрут смотреть онлайн бесплатно в хорошем качестве


      Вы не можете начинать темы
      Вы не можете отвечать на сообщения
      Вы не можете редактировать свои сообщения
      Вы не можете удалять свои сообщения
      Вы не можете голосовать в опросах
      Вы не можете прикреплять файлы к сообщениям
      Вы можете скачивать файлы