1 сезон

1 сезон

iTunes

1

КиноПоиск HD

Кинопоиск HD

iTunes

13

1 сезон

RePack

30

Новинка

ВАЖНО

ИГРА 18+

pack

RePack

MK11
pack

Легкие деньги

RePack

jed

RePack

fifa19

RePack

RDR2

RePack

NEED FOR SPEED™ PAYBACK

4 сезон

9 сезон

Бесстыжие 9 сезон

Все сериалы

все сериалы на PB.wtf

RePack

FAR CRY 5
  
Magnet ссылка

Серая зона / The Grey Zone (Тим Блейк Нельсон) [2001 г., драма, военный, DVDRip, Профессиональный, многоголосый (закадровый] pb.wtf

Серая зона через торрент pb.wtf

Размер: 1.37 GB | Добавлен: 7 лет 8 мес. назад | Торрент скачан:144 раза
Скачать  

04-08-2013 07:38 Серая зона Скачать торрент  

Серая зона / The Grey Zone
Год выпуска: 2001
Страна: США
Жанр: драма, военный,
Продолжительность: 01:43:58
Перевод: Профессиональный, многоголосый (закадровый)

Режиссер: Тим Блейк Нельсон
Продюссер: Дэнни Димборт, Пегги Гормли, Триш Хофманн
Сценарий: Тим Блейк Нельсон, Миклос Ниишли

Бюджет: $5 000 000
Премьера в мире: 13 сентября 2001



В ролях:
Дэвид Аркетт
Велизар Бинев
Дэвид Чандлер
Майкл Стулбарг
Георг Златарев
Димитар Иванов
Дэниэл Бензали
Аллан Кордунер
Стив Бушеми
Харви Кейтель,

Описание: Фильм рассказывает о Sonderkommandos — подразделении состоявшем из евреев и работавших при газовых камерах. Они помогали раздевать узников, собирали у них ценности и подталкивали их в печи. Позже они отмывали кровь от стен газовой камеры и удаляли у трупов золотые зубы и волосы. Те, кто отказывались, были застрелены. После 14-часовой работы члены Sonderkommando получали хорошее питание, им разрешали курить, пить и читать в кварталах, отдельных от других заключенных.

Некоторым также предоставляли несколько дополнительных месяцев жизни перед тем, как их также убивали. Пьеса Тима Блэйка Нельсона основана на истории, произошедшей в одной из 13 существовавших Sonderkommando. И единственный раз за всю историю пленные евреи решились на вооруженное восстание, чтобы спасти не собственные, а чужие жизни.

Качество: DVDRip
Формат: AVI
Видео кодек: DivX
Аудио кодек: AC3
Видео: 640x352, (16:9), 25,000 кадров/сек, 1489 Кбит/сек, 0.264 бит/пикс
Аудио: 48,0 КГц, АС3, 6 каналов, 384 Кбит/сек
скриншот  скриншот  скриншот  скриншот  скриншот  скриншот  
Полное имя : D:загрузкиСерая зона 2001.avi
Формат : AVI
Формат/Информация : Audio Video Interleave
Размер файла : 1,37 Гбайт
Продолжительность : 1 ч. 43 м.
Общий поток : 1882 Кбит/сек
Название фильма : Grey.Zone
Режиссёр : KAMO®
Жанр : Drama
Программа кодирования : VirtualDubMod 1.5.10.1 (build 2439/release)
Формат оригинала/Имя : Movie
Правообладатель : KAMO®

Видео
Идентификатор : 0
Формат : MPEG-4 Visual
Параметр BVOP формата : 1
Параметр QPel формата : Нет
Параметр GMC формата : Без точки перехода
Параметр матрицы формата : Default (H.263)
Режим смешивания : Сжатый битовый поток
Идентификатор кодека : DX50
Идентификатор кодека/Подсказка : DivX 5
Продолжительность : 1 ч. 43 м.
Битрейт : 1489 Кбит/сек
Ширина : 640 пикселей
Высота : 352 пикселя
Соотношение сторон : 16:9
Частота кадров : 25,000 кадров/сек
Цветовое пространство : YUV
Субдискретизация насыщенности : 4:2:0
Битовая глубина : 8 бит
Тип развёртки : Прогрессивная
Метод сжатия : С потерями
Бит/(Пиксели*Кадры) : 0.264
Размер потока : 1,08 Гбайт (79%)
Библиотека кодирования : DivX 5.2.1 (WaffleDay) (UTC 2004-09-08)

Аудио
Идентификатор : 1
Формат : AC-3
Формат/Информация : Audio Coding 3
Расширение режима : CM (complete main)
Параметр Endianness формата : Big
Идентификатор кодека : 2000
Продолжительность : 1 ч. 43 м.
Вид битрейта : Постоянный
Битрейт : 384 Кбит/сек
Каналы : 6 каналов
Расположение каналов : Front: L C R, Side: L R, LFE
Частота : 48,0 КГц
Битовая глубина : 16 бит
Метод сжатия : С потерями
Размер потока : 286 Мбайт (20%)
Выравнивание : Разделение по промежуткам
Продолжительность промежутка : 40 мс. (1,00 видеокадр)
Время предзагрузки промежутка : 500 мс.

pb.wtf



Скачать Серая зона через торрент https://pic.kartinco.top/images/3/81uq469isf.png Скачать фильм Серая зона через торрент бесплантно в хорошем качестве Описание: Фильм рассказывает о Sonderkommandos — подразделении состоявшем из евреев и работавших при газовых камерах. Они помогали ... 9.6 10 8
Info! Золотая раздача, скачанное не засчитывается.
Торрент: Зарегистрирован [2013-08-04 07:38] · скачан: 144 раз
Статус: √ проверено
Размер: 1.37 GB
Как cкачать? Как скачать Серая зона через торрент | UTorrent

% Раздел Тема Автор DL S | L
Фильмы 2001-2005 [ 1.41 GB ] Серая зона / Grey Zone The [2001 военный DVDRip] шурка Скачать
1 | 0

28-11-2019 20:33  

Отключить всю рекламу на сайте

04-08-2013 09:19 Серая зона Скачать торрент  

отличный фильмpb.wtf



04-08-2013 10:50 Серая зона Скачать торрент  

"И единственный раз за всю историю пленные евреи решились на вооруженное восстание, чтобы спасти не собственные, а чужие жизни. "
Поржал над описаниемpb.wtf



04-08-2013 15:09 Серая зона Скачать торрент  

спасибо !pb.wtf



    Дорогой пользователь! Огромная просьба, поблагодарите релизера, оцените раздачу и оставьте свои комментарий, если Вы скачали Серая зона через торрент бесплатно! Внесите свою лепту в развитие PiratBit!
    Комментировать посты могут только пользователи прошедшие не сложную регистрацию
    Показать сообщения:    

    Серая зона через торрент
    Скачать бесплатно Серая зона
    Серая зона скачать торрент
    Серая зона смотреть онлайн
    Cкачать фильм Серая зона бесплатно
    Серая зона скачать торрент в хорошем качестве
    Серая зона смотреть онлайн бесплатно в хорошем качестве


    Вы не можете начинать темы
    Вы не можете отвечать на сообщения
    Вы не можете редактировать свои сообщения
    Вы не можете удалять свои сообщения
    Вы не можете голосовать в опросах
    Вы не можете прикреплять файлы к сообщениям
    Вы можете скачивать файлы