Всегда рабочее зеркало без VPN и Proxy просто перед .vidak.icu напиши любое слово или цифру, Пример http://7dhm.vidak.icu

MVO

MVO

1 сезон

1

1 сезон

iTunes

1 сезон

13

1 сезон

Deluxe

pack

Рекомендуем

Repack

30

ВАЖНО

RePack

MK11

RePack

jed

RePack

fifa19

RePack

RDR2

RePack

NEED FOR SPEED™ PAYBACK

Кинопоиск HD

6 сезон

 Острые козырьки 6 сезон

Все сериалы

все сериалы на PB.wtf

RePack

FAR CRY 5
  
Magnet ссылка

Астерикс и Клеопатра / Asterix et Cleopatre / Asterix and Cleopatra (Рене Госинни / René Goscinny, Ли Пайан / Lee Payant) [1968, Франция, Бельгия, комедия, приключения, DVDRip-AVC] MVO + 3xAVO + Original + Sub (Rus) pb.wtf

Астерикс и Клеопатра через торрент pb.wtf

Размер: 1.51 GB | Добавлен: 9 лет назад | Торрент скачан:52 раза
Смотреть онлайн Астерикс и Клеопатра | Скачать    Ребята, помогите собрать деньги на оплату серверов!!!

04-08-2013 13:56 Астерикс и Клеопатра Скачать торрент  

Астерикс и Клеопатра / Asterix et Cleopatre
Страна: Франция, Бельгия
Жанр: комедия, приключения
Продолжительность: 01:09:15
Год выпуска: 1968
Перевод #1: Профессиональный (многоголосый закадровый)
Перевод #2: Авторский (одноголосый закадровый) Алексей Михалёв
Перевод #3: Авторский (одноголосый закадровый) Юрий Живов
Перевод #4: Авторский (одноголосый закадровый) Сергей Визгунов
Оригинальная аудиодорожка: французский
Русские субтитры: есть

Режиссёр: Рене Госинни / René Goscinny, Ли Пайан / Lee Payant

Роли озвучивали: Роже Карель, Жак Морель, Мишлин Дэкс, Жак Балютен, Рене Госинни, Анри Лабюсьер, Бернар Лавалетт, Серж Савьён, Пьер Трабо

Описание: Египетская царица Клеопатра была не только очень красива, но и столь же строптива. Ее страшно возмутили слова Цезаря, что египтяне навсегда останутся рабами, поскольку они — народ ленивый и глупый.

Царица решила утереть нос обнаглевшему императору. А помогут ей в этом друид Починикс с друзьями Астериксом и Обеликсом. Однажды они уже победили римские легионы. Что ждет их в Египте?


Качество: DVDRip-AVC
Формат: MKV
Видео кодек: H264
Аудио кодек: AC3
Видео: [email protected] (4:3), 25 fps, H264, 2 185 Kbps, 0.214 bit/pixel
Аудио #1: 48 kHz, AC3 Dolby Digital, 2/0 (L,R) ch, ~192kbps | Rus MVO
Аудио #2: 48 kHz, AC3 Dolby Digital, 2/0 (L,R) ch, ~192 kbps | Rus Михалёв
Аудио #3: 48 kHz, AC3 Dolby Digital, 2/0 (L,R) ch, ~192 kbps | Rus Живов
Аудио #4: 48 kHz, AC3 Dolby Digital, 2/0 (L,R) ch, ~160 kbps | Rus Визгунов
Аудио #5: 48 kHz, AC3 Dolby Digital, 2/0 (L,R) ch, ~192 kbps | Fre Original
Формат субтитров: SoftSub (srt)
Раздача от:
D:Asterix_et_Cleopatre.DVDRip-AVC.by_dexter_lex.mkv
General
Unique ID : 176367111081174959084345225210022101367 (0x84AF11EE611E2D7DB6724B6057108177)
Complete name : D:Asterix_et_Cleopatre.DVDRip-AVC.by_dexter_lex.mkv
Format : Matroska
Format version : Version 4 / Version 2
File size : 1.51 GiB
Duration : 1h 9mn
Overall bit rate : 3 116 Kbps
Encoded date : UTC 2013-08-03 09:21:52
Writing application : mkvmerge v6.1.0 ('Old Devil') built on Mar 4 2013 09:10:42
Writing library : libebml v1.3.0 + libmatroska v1.4.0
Video #1
ID : 1
Format : AVC
Format/Info : Advanced Video Codec
Format profile : [email protected]
Format settings, CABAC : Yes
Format settings, ReFrames : 11 frames
Codec ID : V_MPEG4/ISO/AVC
Duration : 1h 9mn
Bit rate : 2 185 Kbps
Width : 720 pixels
Height : 568 pixels
Display aspect ratio : 4:3
Original display aspect ratio : 4:3
Frame rate : 25.000 fps
Color space : YUV
Chroma subsampling : 4:2:0
Bit depth : 8 bits
Scan type : Progressive
Bits/(Pixel*Frame) : 0.214
Stream size : 1.03 GiB (68%)
Writing library : x264 core 130 r2273 b3065e6
Encoding settings : cabac=1 / ref=11 / deblock=1:-2:-1 / analyse=0x3:0x113 / me=umh / subme=10 / psy=1 / psy_rd=1.00:0.20 / mixed_ref=1 / me_range=32 / chroma_me=1 / trellis=2 / 8x8dct=1 / cqm=0 / deadzone=21,11 / fast_pskip=0 / chroma_qp_offset=-3 / threads=6 / lookahead_threads=1 / sliced_threads=0 / nr=0 / decimate=0 / interlaced=0 / bluray_compat=0 / constrained_intra=0 / bframes=8 / b_pyramid=2 / b_adapt=2 / b_bias=0 / direct=3 / weightb=1 / open_gop=0 / weightp=2 / keyint=250 / keyint_min=25 / scenecut=40 / intra_refresh=0 / rc_lookahead=60 / rc=2pass / mbtree=1 / bitrate=2185 / ratetol=1.0 / qcomp=0.60 / qpmin=0 / qpmax=69 / qpstep=4 / cplxblur=20.0 / qblur=0.5 / ip_ratio=1.40 / aq=1:1.00
Default : Yes
Forced : No
Audio #2
ID : 2
Format : AC-3
Format/Info : Audio Coding 3
Mode extension : CM (complete main)
Codec ID : A_AC3
Duration : 1h 9mn
Bit rate mode : Constant
Bit rate : 192 Kbps
Channel(s) : 2 channels
Channel positions : Front: L R
Sampling rate : 48.0 KHz
Bit depth : 16 bits
Compression mode : Lossy
Stream size : 95.1 MiB (6%)
Title : MVO
Language : Russian
Default : Yes
Forced : No
Audio #3
ID : 3
Format : AC-3
Format/Info : Audio Coding 3
Mode extension : CM (complete main)
Codec ID : A_AC3
Duration : 1h 9mn
Bit rate mode : Constant
Bit rate : 192 Kbps
Channel(s) : 2 channels
Channel positions : Front: L R
Sampling rate : 48.0 KHz
Bit depth : 16 bits
Compression mode : Lossy
Stream size : 95.1 MiB (6%)
Title : AVO Михалёв
Language : Russian
Default : No
Forced : No
Audio #4
ID : 4
Format : AC-3
Format/Info : Audio Coding 3
Mode extension : CM (complete main)
Codec ID : A_AC3
Duration : 1h 9mn
Bit rate mode : Constant
Bit rate : 192 Kbps
Channel(s) : 2 channels
Channel positions : Front: L R
Sampling rate : 48.0 KHz
Bit depth : 16 bits
Compression mode : Lossy
Stream size : 95.1 MiB (6%)
Title : AVO Живов
Language : Russian
Default : No
Forced : No
Audio #5
ID : 5
Format : AC-3
Format/Info : Audio Coding 3
Mode extension : CM (complete main)
Codec ID : A_AC3
Duration : 1h 9mn
Bit rate mode : Constant
Bit rate : 160 Kbps
Channel(s) : 2 channels
Channel positions : Front: L R
Sampling rate : 48.0 KHz
Bit depth : 16 bits
Compression mode : Lossy
Stream size : 79.2 MiB (5%)
Title : AVO Визгунов
Language : Russian
Default : No
Forced : No
Audio #6
ID : 6
Format : AC-3
Format/Info : Audio Coding 3
Mode extension : CM (complete main)
Codec ID : A_AC3
Duration : 1h 9mn
Bit rate mode : Constant
Bit rate : 192 Kbps
Channel(s) : 2 channels
Channel positions : Front: L R
Sampling rate : 48.0 KHz
Bit depth : 16 bits
Compression mode : Lossy
Stream size : 95.1 MiB (6%)
Title : Original
Language : French
Default : No
Forced : No
Text #7
ID : 7
Format : UTF-8
Codec ID : S_TEXT/UTF8
Codec ID/Info : UTF-8 Plain Text
Title : Rus
Language : Russian
Default : Yes
Forced : No
pb.wtf



Скачать Астерикс и Клеопатра через торрент http://lostpic.net/orig_images/d/9/8/d9891a52e6dc2d40680d08d582130f8e.jpg Скачать, смотреть онлайн Астерикс и Клеопатра бесплантно в хорошем качестве Описание: Египетская царица Клеопатра была не только очень красива, но и столь же строптива. Ее страшно возмутили слова Цезаря, что ... 10 10 2
Info! Золотая раздача, скачанное не засчитывается.
Торрент: Зарегистрирован [2013-08-04 13:56] · скачан: 52 раз
Статус: √ проверено
Размер: 1.51 GB
Как cкачать? Как скачать Астерикс и Клеопатра через торрент | UTorrent

% Раздел Тема Автор DL S | L
Иностранные мультфильмы [ 742 MB ] Астерикс и Клеопатра / Asterix et Cleopatre / Asterix and Cleopatra [1968 Бельгия DVDRip] MVO dexter lex Скачать
1 | 0

28-11-2019 20:33  

Отключить вcю реклaмy на сайте

    Дорогой пользователь! Огромная просьба, поблагодарите релизера, оцените раздачу и оставьте свои комментарий, если Вы скачали Астерикс и Клеопатра через торрент бесплатно!
    Комментировать посты могут только пользователи прошедшие не сложную регистрацию
    Показать сообщения:    

    Астерикс и Клеопатра через торрент
    Скачать бесплатно Астерикс и Клеопатра
    Астерикс и Клеопатра скачать торрент
    Астерикс и Клеопатра смотреть онлайн
    Cкачать фильм Астерикс и Клеопатра бесплатно
    Астерикс и Клеопатра скачать торрент в хорошем качестве
    Астерикс и Клеопатра смотреть онлайн бесплатно в хорошем качестве


    Вы не можете начинать темы
    Вы не можете отвечать на сообщения
    Вы не можете редактировать свои сообщения
    Вы не можете удалять свои сообщения
    Вы не можете голосовать в опросах
    Вы не можете прикреплять файлы к сообщениям
    Вы можете скачивать файлы