1 сезон

3 сезон

iTunes

1

Line

MVO

iTunes

13

1 сезон

RePack

30

Deluxe

pack

Лицензия

ВАЖНО

ИГРА 18+

pack

RePack

MK11

RePack

jed

RePack

fifa19

RePack

RDR2

RePack

NEED FOR SPEED™ PAYBACK

4 сезон

9 сезон

Бесстыжие 9 сезон

Все сериалы

все сериалы на PB.wtf

RePack

FAR CRY 5

Anonymous, доброй ночи, мы катастрофически не успеваем собрать деньги на оплату серверов, помогите нам пожалуйста 5,10,15р., для нас важна любая помощь . В качестве благодарности мы отключим Вам всю рекламу на сайте (укажите свой ник в строку Ваше имя)!

×
  
Magnet ссылка

На последнем берегу / On the Beach (Расселл Малкахи) [2000 г., военный, фантастика, трагедия, катастрофа, драма, DVD9, MVO, лицензия] pb.wtf

На последнем берегу через торрент pb.wtf

Размер: 7.67 GB | Добавлен: 7 лет 11 мес. назад | Торрент скачан:47 раз
Скачать  

05-08-2013 08:17 На последнем берегу Скачать торрент  

На последнем берегу / On the Beach«Миссия последней надежды в ловушке ядерного апокалипсиса»
Год выпуска: 2000
Страна: США, Австралия
Жанр: военный, фантастика, трагедия, катастрофа, драма,
Продолжительность: 03:15
Перевод: Профессиональный многоголосый, Лицензия
Субтитры: русские

Режиссер: Расселл Малкахи

Премьера в мире: 28 мая 2000




В ролях: Арманд Ассанте, Рэйчел Уорд, Брайан Браун, Жаклин МакКензи, Грант Боулер, Эллисон Веббер, Тигхэн Веббер,

Описание: В 2006 году обмен ракетными ударами между Китаем и США и последовавшая за этим мировая ядерная война сметают человечество с лица Земли. Радиоактивные осадки угрожают уничтожить последний очаг цивилизации - Австралию. Подводная лодка "Чарлстон" под командованием капитана Дуайта Тауерса, единственный уцелевший в войне корабль американского военно - морского флота, прибывает в Мельбурн. Взяв на борт ученого Джулиана Осборна, "Чарлстон" отправляется в экспедицию последней надежды к берегам Аляски, откуда поступают таинственные, еле слышные радиосигналы...

Качество: DVD9
Формат: DVD Video
Видео кодек: MPEG2
Аудио кодек: AC3
Видео: 720x576 (4:3), 25.000 fps, 4 717 Kbps
Аудио#1: Russian Dolby 48000Hz 6ch 448Kbps
Аудио#2: English Dolby 48000Hz 6ch 448Kbps




General
Complete name : VTS_02_1.VOB
Format : MPEG-PS
File size : 1 024 MiB
Duration : 24mn 59s
Overall bit rate mode : Variable
Overall bit rate : 5 727 Kbps

Video
ID : 224 (0xE0)
Format : MPEG Video
Format version : Version 2

Format settings, BVOP : Yes
Format settings, Matrix : Custom
Duration : 24mn 59s
Bit rate mode : Variable
Bit rate : 4 717 Kbps
Maximum bit rate : 9 800 Kbps
Width : 720 pixels
Height : 576 pixels
Display aspect ratio : 4:3
Frame rate : 25.000 fps
Standard : PAL
Color space : YUV
Chroma subsampling : 4:2:0
Bit depth : 8 bits
Scan type : Interlaced
Scan order : Top Field First
Compression mode : Lossy
Bits/(Pixel*Frame) : 0.455
Stream size : 843 MiB (82%)

Audio #1
ID : 189 (0xBD)-128 (0x80)
Format : AC-3
Format/Info : Audio Coding 3
Mode extension : CM (complete main)
Format settings, Endianness : Big
Muxing mode : DVD-Video
Duration : 24mn 59s
Bit rate mode : Constant
Bit rate : 448 Kbps
Channel(s) : 6 channels
Channel positions : Front: L C R, Side: L R, LFE
Sampling rate : 48.0 KHz
Bit depth : 16 bits
Compression mode : Lossy
Stream size : 80.1 MiB (8%)

Audio #2
ID : 189 (0xBD)-129 (0x81)
Format : AC-3
Format/Info : Audio Coding 3
Mode extension : CM (complete main)
Format settings, Endianness : Big
Muxing mode : DVD-Video
Duration : 24mn 59s
Bit rate mode : Constant
Bit rate : 448 Kbps
Channel(s) : 6 channels
Channel positions : Front: L C R, Side: L R, LFE
Sampling rate : 48.0 KHz
Bit depth : 16 bits
Compression mode : Lossy
Stream size : 80.1 MiB (8%)

Text
ID : 189 (0xBD)-32 (0x20)
Format : RLE
Format/Info : Run-length encoding
Muxing mode : DVD-Video
Duration : 24mn 51s
Delay relative to video : 6s 40ms

Menu


На последнем берегу скачать торрент


pb.wtf



Скачать На последнем берегу через торрент https://pic1.kartinco.top/images/23/inti8ehxli.jpg Скачать фильм На последнем берегу через торрент бесплантно в хорошем качестве Описание: В 2006 году обмен ракетными ударами между Китаем и США и последовавшая за этим мировая ядерная война сметают человечество с лица ... 10 10 8
Info! Золотая раздача, скачанное не засчитывается.
Торрент: Зарегистрирован [2013-08-05 08:17] · скачан: 47 раз
Статус: √ проверено
Размер: 7.67 GB
Как cкачать? Как скачать На последнем берегу через торрент | UTorrent

% Раздел Тема Автор DL S | L
Фильмы до 2000 г. [ 3.07 GB ] На последнем берегу / On the Beach [2000 DVDRip-AVC многоголосый] -Lexx- Скачать
1 | 0
Фильмы до 2000 г. [ 1.38 GB ] На последнем берегу / On the Beach [2000 ... DVDRip] allexx70 Скачать
1 | 0

28-11-2019 20:33  

Отключить всю рекламу на сайте

    Дорогой пользователь! Огромная просьба, поблагодарите релизера, оцените раздачу и оставьте свои комментарий, если Вы скачали На последнем берегу через торрент бесплатно! Внесите свою лепту в развитие PiratBit!
    Комментировать посты могут только пользователи прошедшие не сложную регистрацию
    Показать сообщения:    

    На последнем берегу через торрент
    Скачать бесплатно На последнем берегу
    На последнем берегу скачать торрент
    На последнем берегу смотреть онлайн
    Cкачать фильм На последнем берегу бесплатно
    На последнем берегу скачать торрент в хорошем качестве
    На последнем берегу смотреть онлайн бесплатно в хорошем качестве


    Вы не можете начинать темы
    Вы не можете отвечать на сообщения
    Вы не можете редактировать свои сообщения
    Вы не можете удалять свои сообщения
    Вы не можете голосовать в опросах
    Вы не можете прикреплять файлы к сообщениям
    Вы можете скачивать файлы