Доктор Стрэндж

Лицензия

Добыча

Дубляж

Дом дракона

1 сезон

Тор

Дубляж

В эфире

Дубляж

Там, где раки поют

MVO

Властелин колец

1 сезон

GLOBAL

pack

Рекомендуем

30

Пиратка

ВАЖНО

ВАЖНО

Ghostwire

Пиратка

jed

RePack

nioh2

RePack

RDR2

RePack

NEED FOR SPEED™ PAYBACK

RePack

скачать торрент

Кинопоиск HD

Острые козырьки 6 сезон

6 сезон

FAR CRY 6

RePack

скачать торрент

Лицензия

скачать торрент

MVO

1

1 сезон

скачать торрент

1 сезон

скачать торрент

Лицензия

  

Изгой / Cast Away (Роберт Земекис) [2000 г., приключения, семейный, драма, BDRip]

Изгой через торрент pb.wtf

Размер: 15.97 GB | Добавлен: 9 лет 3 мес. назад | Торрент скачан:27 раз
Смотреть онлайн | Скачать   

05-08-2013 10:32 Изгой Скачать торрент  

Изгой / Cast Away«Его путешествие начинается на краю мира»
Год выпуска: 2000
Страна: США
Жанр: приключения, семейный, драма,
Продолжительность: 02:23

Режиссер: Роберт Земекис

Бюджет: $90 000 000
Премьера в мире: 7 декабря 2000

PG-13



В ролях: Том Хэнкс, Хелен Хант, Кристофер Нот, Ник Сирси, Дэвид А. Брукс,

Описание: Герой этой картины, Чак Нолан, — сотрудник всемирно известной службы доставки «Федерал Экспресс». Чак — скрупулезный практик и неисправимый педант. Жизнь Нолана, высокопоставленного инспектора международных отделений «ФедЕкс» расписана по минутам. И этих драгоценных минут катастрофически не хватает ни на личную жизнь, ни на любимую женщину…

Однако, безжалостная судьба заставила Нолана иначе взглянуть на отпущенное ему время… Самолет, на котором путешествует Чак, падает в океан. Инженер, единственный, кому посчастливилось остаться в живых, попадает на необитаемый остров. Здесь Нолану предстоит провести мучительно долгие годы в жестокой битве за выживание


Качество: BDRip 1080р
Формат: MKV
Видео кодек: H.264
Аудио кодек: DTS AC-3
Видео: 1920x1040, 23.976 fps, ~ 12427 kbps
Аудио#1: Русский DTS 5.1 - 1536 kb/s 48.0 KHz(Одноголосый -Живов)
Аудио#2: Русский AC-3 - 448 kb/s 48.0 KHz(Многоголосый закадровый)
Аудио#3: Английский DTS 5.1 - 1536 kb/s 48.0 KHz




E:Izgoy.BDRip.1080p.x264.MIF.mkv
General
Unique ID : 216913908723679741871717137299380360251 (0xA330196640ACF13EA5C0D8DD2A1BD43B)
Complete name : E:киноИзгой Cast AwayIzgoy.BDRip.1080p.x264.MIFIzgoy.BDRip.1080p.x264.MIF.mkv
Format : Matroska
Format version : Version 1
File size : 16.0 GiB
Duration : 2h 23mn
Overall bit rate : 15.9 Mbps
Encoded date : UTC 2008-03-30 00:38:55
Writing application : mkvmerge v2.1.0 ('Another Place To Fall') built on Aug 19 2007 13:40:07
Writing library : libebml v0.7.7 + libmatroska v0.8.1
Video #1
ID : 1
Format : AVC
Format/Info : Advanced Video Codec

Format settings, CABAC : Yes
Format settings, ReFrames : 4 frames
Codec ID : V_MPEG4/ISO/AVC
Duration : 2h 23mn
Bit rate : 12.4 Mbps
Width : 1 920 pixels
Height : 1 040 pixels
Display aspect ratio : 1.85:1
Frame rate mode : Constant
Frame rate : 23.976 fps
Color space : YUV
Chroma subsampling : 4:2:0
Bit depth : 8 bits
Scan type : Progressive
Bits/(Pixel*Frame) : 0.260
Stream size : 12.2 GiB (76%)
Writing library : x264 core 58 r786M aa5391a
Encoding settings : cabac=1 / ref=4 / deblock=1:-3:-3 / analyse=0x3:0x113 / me=umh / subme=7 / me-prepass=0 / brdo=1 / mixed_ref=1 / me_range=16 / chroma_me=1 / trellis=1 / 8x8dct=1 / cqm=2 / deadzone=6,4 / chroma_qp_offset=0 / threads=6 / nr=0 / decimate=0 / mbaff=0 / bframes=5 / b_pyramid=1 / b_adapt=1 / b_bias=0 / direct=3 / wpredb=1 / bime=1 / keyint=250 / keyint_min=25 / scenecut=40(pre) / rc=2pass / bitrate=12427 / ratetol=1.0 / rceq='blurCplx^(1-qComp)' / qcomp=1.00 / qpmin=10 / qpmax=51 / qpstep=4 / cplxblur=20.0 / qblur=0.5 / ip_ratio=1.40 / pb_ratio=1.30 / aq=1:0.5:13.0
Language : English
Default : Yes
Forced : No
Audio #2
ID : 2
Format : DTS
Format/Info : Digital Theater Systems
Mode : 16
Format settings, Endianness : Big
Codec ID : A_DTS
Duration : 2h 23mn
Bit rate mode : Constant
Bit rate : 1 509 Kbps
Channel(s) : 6 channels
Channel positions : Front: L C R, Side: L R, LFE
Sampling rate : 48.0 KHz
Bit depth : 24 bits
Compression mode : Lossy
Stream size : 1.52 GiB (9%)
Title : DTS 5.1
Language : English
Default : Yes
Forced : No
Audio #10
ID : 10
Format : DTS
Format/Info : Digital Theater Systems
Mode : 16
Format settings, Endianness : Big
Codec ID : A_DTS
Duration : 2h 23mn
Bit rate mode : Constant
Bit rate : 1 510 Kbps
Channel(s) : 6 channels
Channel positions : Front: L C R, Side: L R, LFE
Sampling rate : 48.0 KHz
Bit depth : 24 bits
Compression mode : Lossy
Stream size : 1.52 GiB (9%)
Title : DTS 5.1 (Odnogolosiy, Givov) by MIF
Language : Russian
Default : No
Forced : No
Audio #11
ID : 11
Format : AC-3
Format/Info : Audio Coding 3
Mode extension : CM (complete main)
Format settings, Endianness : Big
Codec ID : A_AC3
Duration : 2h 23mn
Bit rate mode : Constant
Bit rate : 448 Kbps
Channel(s) : 6 channels
Channel positions : Front: L C R, Side: L R, LFE
Sampling rate : 48.0 KHz
Bit depth : 16 bits
Compression mode : Lossy
Stream size : 461 MiB (3%)
Title : DD 5.1 (Mnogogolosiy) by MIF
Language : Russian
Default : No
Forced : No
Text #3
ID : 3
Format : UTF-8
Codec ID : S_TEXT/UTF8
Codec ID/Info : UTF-8 Plain Text
Language : English
Default : Yes
Forced : No
Text #4
ID : 4
Format : UTF-8
Codec ID : S_TEXT/UTF8
Codec ID/Info : UTF-8 Plain Text
Language : Finnish
Default : No
Forced : No
Text #5
ID : 5
Format : UTF-8
Codec ID : S_TEXT/UTF8
Codec ID/Info : UTF-8 Plain Text
Language : French
Default : No
Forced : No
Text #6
ID : 6
Format : UTF-8
Codec ID : S_TEXT/UTF8
Codec ID/Info : UTF-8 Plain Text
Language : Greek
Default : No
Forced : No
Text #7
ID : 7
Format : UTF-8
Codec ID : S_TEXT/UTF8
Codec ID/Info : UTF-8 Plain Text
Language : Romanian
Default : No
Forced : No
Text #8
ID : 8
Format : UTF-8
Codec ID : S_TEXT/UTF8
Codec ID/Info : UTF-8 Plain Text
Language : Swedish
Default : No
Forced : No
Text #9
ID : 9
Format : UTF-8
Codec ID : S_TEXT/UTF8
Codec ID/Info : UTF-8 Plain Text
Language : Spanish
Default : No
Forced : No


Изгой скачать торрент





Скачать Изгой через торрент https://pic1.kartinco.top/images/23/h7vf7gvyty.jpg Скачать, смотреть онлайн Изгой бесплантно в хорошем качестве Описание: Герой этой картины, Чак Нолан, — сотрудник всемирно известной службы доставки «Федерал Экспресс». Чак — скрупулезный практик и ... 9.9 10 10
Info! Золотая раздача, скачанное не засчитывается.
Торрент: Зарегистрирован [2013-08-05 10:32] · скачан: 27 раз
Статус: √ проверено
Размер: 15.97 GB
Как cкачать? Как скачать Изгой через торрент | UTorrent

% Раздел Тема Автор DL S | L
Фильмы [HD 720p, 1080p] (Хороший звук DUB, MVO) [ 12.57 GB ] Изгой / Cast Away | DUB + MVO + 2хDVO + 3xAVO | 1080p RealOldGamer Скачать
2 | 0
Фильмы [HD 720p, 1080p] (Хороший звук DUB, MVO) [ 21.45 GB ] Изгой / Cast Away | DUB | 1080p msltel Скачать
1 | 0
Фильмы [HD 720p, 1080p] (Хороший звук DUB, MVO) [ 9.07 GB ] Изгой / Cast Away | DUB | 720p msltel Скачать
2 | 0
Фильмы [HD 720p, 1080p] (Хороший звук DUB, MVO) [ 7.8 GB ] Изгой / Cast Away | Дубляж | 1080p, HEVC, Дубляж Мичман37 Скачать
1 | 0
Фильмы до 2000 г. [ 1.47 GB ] Изгой / Cast Away | | BDRip killermax2013 Скачать
1 | 0
Фильмы 2001-2005 [ 2.18 GB ] Изгой / Cast Away | DUB | HDRip-AVC Phoenix Скачать
1 | 0
Фильмы [HD 720p, 1080p] (Хороший звук DUB, MVO) [ 7.46 GB ] Изгой / Cast Away | Изгой / Cast Away | BDRip .::Sergey::. Скачать
1 | 0



Последний раз редактировалось: Assasinca (2013-08-05 10:48), всего редактировалось 1 раз

28-11-2019 20:33  


Отключить вcю реклaмy на сайте, в т.ч. и в плеере онлайн просмотра!

05-08-2013 10:43 Изгой Скачать торрент  

нормальный фильмец....качаем!



05-08-2013 10:54 Изгой Скачать торрент  

Хороший фильм, стоит смотреть пробирает до глубины души.



    Дорогой пользователь! Огромная просьба, поблагодарите релизера, оцените раздачу и оставьте свои комментарий, если Вы скачали Изгой через торрент бесплатно!!
    Комментировать посты могут только пользователи прошедшие не сложную регистрацию
    Показать сообщения:    


    Изгой через торрент
    Скачать бесплатно Изгой
    Изгой скачать торрент
    Изгой смотреть онлайн
    Cкачать фильм Изгой бесплатно
    Изгой скачать торрент в хорошем качестве
    Изгой смотреть онлайн бесплатно в хорошем качестве
    Вы не можете начинать темы
    Вы не можете отвечать на сообщения
    Вы не можете редактировать свои сообщения
    Вы не можете удалять свои сообщения
    Вы не можете голосовать в опросах
    Вы не можете прикреплять файлы к сообщениям
    Вы можете скачивать файлы
    Изгой / Cast Away [2000 г., приключения, семейный, драма, BDRip] смотреть онлайн, скачать торрент picoco.icu