MEGA SALE -50% FORZA HORIZON 4 ULTIMATE+ВСЕ DLC+ОНЛАЙН всего за 599р. 299 руб. (супер цена). Внимание количество ограничено!!!

iTunes

1+1

iTunes

мы

iTunes

1

iTunes

Чернобыль

iTunes

Ральф против интернета

Лицензия

ПШазам

Лицензия

Игра престолов

Лицензия

30
pack

ВАЖНО

!!Акция!!

Alien_RageХит недели

RePack

Resident Evil 21

ИГРА 18+

pack

RePack

Metro:Exodus

!!Акция!!

Alien_Rage

RePack

fifa19

RePack

Assassins Creed: Odyssey

RePack

NEED FOR SPEED™ PAYBACK

3 сезон

9 сезон

Бесстыжие 9 сезон

Все сериалы

все сериалы на PB.wtf

RePack

FAR CRY 5
Ребята, катастрофически не хватает 7730р. для оплаты серверов за АВГУСТ (всвязи с блокировками трафик упал в 3 раза), 1-2р., выручайте.
  

Кислотный дом / The Acid House (Пол МакГиган) [1998 г., Фэнтези, драма, комедия, экранизация, DVDRip, MVO, лицензия] pb.wtf

Кислотный дом через торрент pb.wtf

Размер: 1.37 GB | Добавлен: 6 лет 1 мес. назад | Торрент скачан:128 раз
Скачать  

05-08-2013 13:03 Кислотный дом Скачать торрент  

Кислотный дом / The Acid House
Год выпуска: 1998
Страна: Великобритания
Жанр: Фэнтези, драма, комедия, экранизация,
Продолжительность: 01:46:05
Перевод: Профессиональный многоголосый

Режиссер: Пол МакГиган
Сценарий: Ирвин Уэлш



В ролях: Стефен МакКоул, Морис Роевз, Гарри Суини, Саймон Вейр, Айэйн Эндрю, Ирвин Уэлш, Пэт Стэнтон, Энни Луиз Росс, Юэн Бремнер,

Описание: Как быть, если Господь, оказавшийся, кстати, неприятным сквернословящим стариком, превратит вас в навозную муху, а родной папаша — извращенец прихлопнет вас газетой?

Или если омерзительный сосед сверху, пробив огромную дыру в вашем потолке, нахально станет спать с вашей, и без того уже не святой, женой?

А может вам придётся по вкусу окутанное галлюциногенным угаром переселение вашей порочной души в тело невинного грудняка? Добро пожаловать!

Качество: DVDRip
Формат: MPEG
Видео кодек: DivX
Аудио кодек: AC3
Видео: MPEG4, DivX, 720х400, 25,000 Kbps, 1390 Kbps
Аудио#1: 48 kHz, AC-3, 6ch, 448 Kbps
скриншот   скриншот  
скриншот   скриншот  

Общее
Полное имя : D:раздачиKislotnui.dom.1998.DivX.DVDRip.avi
Формат : AVI
Формат/Информация : Audio Video Interleave
Размер файла : 1,37 Гбайт
Продолжительность : 1 ч. 46 м.
Общий поток : 1845 Кбит/сек
Программа кодирования : VirtualDubMod 1.5.4.1 (build 2178/release)
Библиотека кодирования : VirtualDubMod build 2178/release

Видео
Идентификатор : 0
Формат : MPEG-4 Visual
Параметр BVOP формата : 1
Параметр QPel формата : Нет
Параметр GMC формата : Без точки перехода
Параметр матрицы формата : Default (H.263)
Режим смешивания : Сжатый битовый поток
Идентификатор кодека : DX50
Идентификатор кодека/Подсказка : DivX 5
Продолжительность : 1 ч. 46 м.
Битрейт : 1390 Кбит/сек
Ширина : 720 пикселей
Высота : 400 пикселей
Соотношение сторон : 16:9
Частота кадров : 25,000 кадров/сек
Цветовое пространство : YUV
Субдискретизация насыщенности : 4:2:0
Битовая глубина : 8 бит
Тип развёртки : Прогрессивная
Метод сжатия : С потерями
Бит/(Пиксели*Кадры) : 0.193
Размер потока : 1,03 Гбайт (75%)
Библиотека кодирования : DivX 6.8.0 (UTC 2007-12-04)

Аудио
Идентификатор : 1
Формат : AC-3
Формат/Информация : Audio Coding 3
Расширение режима : CM (complete main)
Параметр Endianness формата : Big
Идентификатор кодека : 2000
Продолжительность : 1 ч. 46 м.
Вид битрейта : Постоянный
Битрейт : 448 Кбит/сек
Каналы : 6 каналов
Расположение каналов : Front: L C R, Side: L R, LFE
Частота : 48,0 КГц
Битовая глубина : 16 бит
Метод сжатия : С потерями
Задержка видео : 2 с. 969 мс.
Размер потока : 340 Мбайт (24%)
Выравнивание : Разделение по промежуткам
Продолжительность промежутка : 96 мс. (2,40 видеокадра)
Время предзагрузки промежутка : 96 мс.
Язык : Russian

pb.wtf



Скачать Кислотный дом через торрент http://pic.kartinco.top/images/3/maktbaxjc1.jpg Скачать фильм Кислотный дом через торрент бесплантно в хорошем качестве Описание: Как быть, если Господь, оказавшийся, кстати, неприятным сквернословящим стариком, превратит вас в навозную муху, а родной папаша ... 9.7 10 10
Info! Золотая раздача, скачанное не засчитывается.
Торрент: Зарегистрирован [2013-08-05 13:03] · скачан: 128 раз
Статус: √ проверено
Размер: 1.37 GB
Как cкачать? Как скачать Кислотный дом через торрент | qTorrent


>> Регистрируемся здесь <<






Отзывы и комментарии о схеме читаем и пишем здесь: ---> Отзывы и комментарии о схеме

Новые благодарочки в телеграм довольных пользователей:
скриншот   скриншот   скриншот   скриншот   скриншот

05-08-2013 13:53 Кислотный дом Скачать торрент  

Трэшак, смотрел в видеопрокате еще в конце 90-х.pb.wtf



05-08-2013 14:26 Кислотный дом Скачать торрент  

Darkkiller32 писал(а):

Трэшак, смотрел в видеопрокате еще в конце 90-х.

фильм действительно жесть, но к просмотру обязателен...pb.wtf



    Дорогой пользователь! Огромная просьба, поблагодарите релизера, оцените раздачу и оставьте свои комментарий, если Вы скачали Кислотный дом через торрент бесплатно! Внесите свою лепту в развитие PiratBit!
    Комментировать посты могут только пользователи прошедшие не сложную регистрацию
    Показать сообщения:    

    Кислотный дом через торрент
    Скачать бесплатно Кислотный дом
    Кислотный дом скачать торрент
    Кислотный дом смотреть онлайн
    Cкачать фильм Кислотный дом бесплатно
    Кислотный дом скачать торрент в хорошем качестве
    Кислотный дом смотреть онлайн бесплатно в хорошем качестве


    Вы не можете начинать темы
    Вы не можете отвечать на сообщения
    Вы не можете редактировать свои сообщения
    Вы не можете удалять свои сообщения
    Вы не можете голосовать в опросах
    Вы не можете прикреплять файлы к сообщениям
    Вы можете скачивать файлы