1 сезон

1 сезон

iTunes

1

КиноПоиск HD

Кинопоиск HD

iTunes

13

1 сезон

RePack

30

Новинка

ВАЖНО

ИГРА 18+

pack

RePack

MK11
pack

Легкие деньги

RePack

jed

RePack

fifa19

RePack

RDR2

RePack

NEED FOR SPEED™ PAYBACK

4 сезон

9 сезон

Бесстыжие 9 сезон

Все сериалы

все сериалы на PB.wtf

RePack

FAR CRY 5
  
Magnet ссылка

Секретарша / Secretary (Стивен Шейнберг) [2001 г., драма, мелодрама, комедия, HDRip, DUB] pb.wtf

Секретарша через торрент pb.wtf

Размер: 1.36 GB | Добавлен: 7 лет 8 мес. назад | Торрент скачан:149 раз
Скачать  

06-08-2013 14:29 Секретарша Скачать торрент  

Секретарша / Secretary
Год выпуска: 2001
Страна: США
Жанр: драма, мелодрама, комедия
Продолжительность: 01:51:07
Перевод: Дубляж

Режиссер: Стивен Шейнберг
Продюссер: Эндрю Фирберг, Эми Хобби, Стивен Шейнберг
Сценарий: Эрин Крессида Уилсон, Мэри Гейтскилл, Стивен Шейнберг

Премьера в мире: 11 января 2002


В ролях: Джеймс Спэйдер, Мэгги Джилленхол, Джереми Дэвис, Лесли Энн Уоррен, Стивен МакХэтти, Патрик Бошо, Джессика Так, Оз Перкинс, Эми Локейн, Мэри Джой

Описание: В родной городок возвращается привлекательная девушка Ли Холловэй. Она страдает небольшими отклонениями в поведении, однако эти странности не мешают Ли устроиться на работу секретаршей к местному чудаковатому юристу мистеру Грэю.
Для начала работа казалась вполне обычной: печатать, оформлять документы, приносить кофе и т. д., пока мистер Грей не заметил, что с грамматикой у девушки не все так хорошо, как хотелось бы. Вот тут-то и открывается дверь в тот самый мир, который Вы так часто себе представляете и начинается все самое интересное!

Rip By: xGhost

Качество: HDRip
Формат: MKV
Видео кодек: H.264
Аудио кодек: AC3
Видео: AVC, 720x400 (16:9), 23.976 fps, 1 373 Kbps (0.199 bit/pixel)
Аудио: AC-3, 48.0 KHz, 6 ch, 384 Kbps, CBR (Russian)

General
Unique ID : 233048149463047105968847323900000606183 (0xAF5370E253F8DA4C906048A1ADFC17E7)
Complete name : D:x264Секретарша.2002..D.x264.HDRip.Rus.1400MB.mkv
Format : Matroska
Format version : Version 2
File size : 1.36 GiB
Duration : 1h 51mn
Overall bit rate : 1 758 Kbps
Encoded date : UTC 2013-08-06 09:23:51
Writing application : mkvmerge v6.2.0 ('Promised Land') built on Apr 28 2013 12:22:01
Writing library : libebml v1.3.0 + libmatroska v1.4.0

Video
ID : 1
Format : AVC
Format/Info : Advanced Video Codec
Format profile : High@L4.1
Format settings, CABAC : Yes
Format settings, ReFrames : 9 frames
Codec ID : V_MPEG4/ISO/AVC
Duration : 1h 51mn
Bit rate : 1 373 Kbps
Width : 720 pixels
Height : 400 pixels
Display aspect ratio : 16:9
Frame rate mode : Constant
Frame rate : 23.976 fps
Color space : YUV
Chroma subsampling : 4:2:0
Bit depth : 8 bits
Scan type : Progressive
Bits/(Pixel*Frame) : 0.199
Stream size : 1.04 GiB (76%)
Writing library : x264 core 133 r2334 a3ac64b
Encoding settings : cabac=1 / ref=9 / deblock=1:-3:-3 / analyse=0x3:0x113 / me=umh / subme=7 / psy=1 / psy_rd=1.00:0.15 / mixed_ref=1 / me_range=32 / chroma_me=1 / trellis=1 / 8x8dct=1 / cqm=0 / deadzone=21,11 / fast_pskip=1 / chroma_qp_offset=-2 / threads=6 / lookahead_threads=1 / sliced_threads=0 / nr=0 / decimate=1 / interlaced=0 / bluray_compat=0 / constrained_intra=0 / bframes=3 / b_pyramid=2 / b_adapt=1 / b_bias=0 / direct=1 / weightb=1 / open_gop=0 / weightp=2 / keyint=240 / keyint_min=22 / scenecut=40 / intra_refresh=0 / rc_lookahead=40 / rc=2pass / mbtree=1 / bitrate=1373 / ratetol=1.0 / qcomp=0.60 / qpmin=10 / qpmax=51 / qpstep=4 / cplxblur=20.0 / qblur=0.5 / vbv_maxrate=50000 / vbv_bufsize=62500 / nal_hrd=none / ip_ratio=1.40 / aq=1:1.00
Default : Yes
Forced : No

Audio
ID : 2
Format : AC-3
Format/Info : Audio Coding 3
Mode extension : CM (complete main)
Format settings, Endianness : Big
Codec ID : A_AC3
Duration : 1h 51mn
Bit rate mode : Constant
Bit rate : 384 Kbps
Channel(s) : 6 channels
Channel positions : Front: L C R, Side: L R, LFE
Sampling rate : 48.0 KHz
Bit depth : 16 bits
Compression mode : Lossy
Stream size : 305 MiB (22%)
Language : Russian
Default : Yes
Forced : No
pb.wtf



Скачать Секретарша через торрент http://i031.radikal.ru/1011/b0/645b69b764d3.jpg Скачать фильм Секретарша через торрент бесплантно в хорошем качестве Описание: В родной городок возвращается привлекательная девушка Ли Холловэй. Она страдает небольшими отклонениями в поведении, однако эти ... 10 10 9
Info! Золотая раздача, скачанное не засчитывается.
Торрент: Зарегистрирован [2013-08-06 14:29] · скачан: 149 раз
Статус: √ проверено
Размер: 1.36 GB
Как cкачать? Как скачать Секретарша через торрент | UTorrent

% Раздел Тема Автор DL S | L
Порно фильмы с сюжетом [ 1.38 GB ] Лиза Грудастая секретарша / Liza Busty Secretary [2019 All SexBig BoobsAnalLesbianFacial DVDRip] Venom Скачать
1 | 0
Гонзо [ 4.79 GB ] Сексуальные Секретарши / Sexy Secretaries [2018 All Sex Anal Oral Gonzo Facial Couples Office WEB-DLRip] Split Scenes sheker187 Скачать
1 | 0
Гонзо [ 1.45 GB ] Шантаж секретарш / Blackmailed Secretaries [2018 Gonzo Big Tits Big Ass Blowjob Facial Mouth Lingerie DVDRip Оригинальный] nn99nn Скачать
1 | 0
Порно фильмы без сюжета [ 1.08 GB ] Симпатичные Секретарши / Private Specials 193: Cute Secretaries [2017 All Sex Anal Oral Gonzo Facial DP WEBRip 360p] Split Scenes sheker187 Скачать
2 | 0
Порно фильмы HD [ 34.56 GB ] Моя Покорная Секретарша / My Submissive Secretary / Cara Secretaire Soumise [2015 Feature All sex Treesome DP Anal WEB-DL 2160p Оригинальный] nn99nn Скачать
1 | 0
Порно фильмы HD [ 28.9 GB ] Секретарша моего отца / My Father''s Secretary [2017 All Sex Big Asses Big Boobs Big Dicks Oral Anal Threesomes Lingerie Office WEB-DL 2160p Оригинальный] nn99nn Скачать
1 | 0
Порно фильмы без сюжета [ 880 MB ] Секретарша моего отца / My Father''s Secretary [2017 All Sex Big Asses Big Boobs Big Dicks Oral Anal Threesomes Lingerie Office DVDRip Оригинальный] nn99nn Скачать
1 | 0

28-11-2019 20:33  

Отключить всю рекламу на сайте

06-08-2013 14:33 Секретарша Скачать торрент  

запахло поривомpb.wtf



    Дорогой пользователь! Огромная просьба, поблагодарите релизера, оцените раздачу и оставьте свои комментарий, если Вы скачали Секретарша через торрент бесплатно! Внесите свою лепту в развитие PiratBit!
    Комментировать посты могут только пользователи прошедшие не сложную регистрацию
    Показать сообщения:    

    Секретарша через торрент
    Скачать бесплатно Секретарша
    Секретарша скачать торрент
    Секретарша смотреть онлайн
    Cкачать фильм Секретарша бесплатно
    Секретарша скачать торрент в хорошем качестве
    Секретарша смотреть онлайн бесплатно в хорошем качестве


    Вы не можете начинать темы
    Вы не можете отвечать на сообщения
    Вы не можете редактировать свои сообщения
    Вы не можете удалять свои сообщения
    Вы не можете голосовать в опросах
    Вы не можете прикреплять файлы к сообщениям
    Вы можете скачивать файлы