Ссылка на приватное зеркало нашего сайта всего за 1$. Внимание количество ограничено!!!

2 сезон

iTunes

1 сезон

1

iTunes

iTunes

iTunes

1 сезон

RePack

30

ИГРА 18+

pack

ВАЖНО

!!Акция!!

Alien_RageХит недели

RePack

MK11
pack

Забери бонус

RePack

jed

!!Акция!!

Alien_Rage

RePack

fifa19

RePack

Assassins Creed: Odyssey

RePack

NEED FOR SPEED™ PAYBACK

4 сезон

9 сезон

Бесстыжие 9 сезон

Все сериалы

все сериалы на PB.wtf

RePack

FAR CRY 5
  

Взвод / Platoon (Оливер Стоун / Oliver Stone) [1986 г., боевик, драма, военный, BDRip 1080p, AVO (Д.Пучков) + AVO (Гаврилов) + AVO (Живов) ] pb.wtf

Взвод через торрент pb.wtf

Размер: 14.38 GB | Добавлен: 7 лет 2 мес. назад | Торрент скачан:25 раз
Скачать  

06-08-2013 20:17 Взвод Скачать торрент  

Взвод / PlatoonГод выпуска: 1986
Страна: США, Великобритания
Жанр: боевик, драма, военный,
Продолжительность: 02:03:06
Перевод: Авторский (Д.Пучков) + AVO (Гаврилов) + AVO (Живов)

Режиссер: Оливер Стоун / Oliver Stone




8.20 (186 151)
В ролях: Том Беренджер / Tom Berenger, Уиллем Дефо / Willem Dafoe, Чарли Шин / Charlie Sheen, Форест Уитакер / Forest Whitaker, Франческо Куинн / Francesco Quinn, Джонни Депп / Johnny Depp, Джон К. МакГинли / John C. McGinley, Ричард Эдсон / Richard Edson, Тони Тодд / Tony Todd, Кит Дэвид / Keith David




Описание: В сентябре 1967 года куда-то в приграничный район между Вьетнамом и Камбоджей прибыл рядовой 25-го пехотного полка Крис Тэйлор. Прибыл, чтобы своими глазами увидеть, как выглядит подлинный Ад. Не потусторонний, вымышленный, сочиненный писателями или художниками, а натуральный, здешний, вполне земной Ад, на территории которого схлестнулись друг с другом сержант Боб Барнс и сержант Илайес Гродин. Они тоже думали, что будут воевать с партизанами-вьетконговцами, но оказалось, что иногда приходится драться со своими…




Подробнее о фильме www.kinopoisk.ru/film/468/




Качество: BDRip [1080p]

Формат: MKV

Видео кодек: H.264

Аудио кодек: DTS

Видео: 1920 x 1040, 23.976 fps, x246(High@L4.1), 12.6 Mbps

Аудио#1: Russian DTS, 6ch, 1510 Kbps, 48.0 KHz, [AVO "Гоблин"] ненормативная лексика

Аудио#2: Russian DTS, 6ch, 1510 Kbps, 48.0 KHz [AVO Гаврилов]

Аудио#3: Russian DTS, 6ch, 1510 Kbps, 48.0 KHz [AVO Живов]




Полное имя : D:киноPlatoon ( Oliver Stone, 1986)[BluRay.1080p].mkv
Формат : Matroska
Версия формата : Version 2
Размер файла : 14,4 Гбайт
Продолжительность : 2 ч. 3 м.
Общий поток : 16,7 Мбит/сек
Дата кодирования : UTC 2013-08-06 11:29:49
Программа кодирования : mkvmerge v5.7.0 ('The Whirlwind') built on Jul 8 2012 20:08:51
Библиотека кодирования : libebml v1.2.3 + libmatroska v1.3.0

Видео
Идентификатор : 1
Формат : AVC
Формат/Информация : Advanced Video Codec
Профиль формата : High@L4.1
Параметр CABAC формата : Да
Параметр ReFrames формата : 4 кадра
Режим смешивания : Header stripping
Идентификатор кодека : V_MPEG4/ISO/AVC
Продолжительность : 2 ч. 3 м.
Битрейт : 11,9 Мбит/сек
Номинальный битрейт : 12,6 Мбит/сек
Ширина : 1920 пикселей
Высота : 1040 пикселей
Соотношение сторон : 1,85:1
Режим частоты кадров : Постоянный
Частота кадров : 23,976 кадра/сек
Цветовое пространство : YUV
Субдискретизация насыщенности : 4:2:0
Битовая глубина : 8 бит
Тип развёртки : Прогрессивная
Бит/(Пиксели*Кадры) : 0.248
Размер потока : 10,2 Гбайт (71%)
Заголовок : CHD
Библиотека кодирования : x264 core 88 r1471 1144615
Настройки программы : cabac=1 / ref=4 / deblock=1:-3:-3 / analyse=0x3:0x113 / me=umh / subme=9 / psy=1 / psy_rd=1.05:0.10 / mixed_ref=1 / me_range=32 / chroma_me=1 / trellis=2 / 8x8dct=1 / cqm=2 / deadzone=21,11 / fast_pskip=0 / chroma_qp_offset=-2 / threads=12 / sliced_threads=0 / nr=0 / decimate=1 / mbaff=0 / constrained_intra=0 / bframes=4 / b_pyramid=2 / b_adapt=2 / b_bias=0 / direct=3 / wpredb=1 / wpredp=2 / keyint=250 / keyint_min=25 / scenecut=40 / intra_refresh=0 / rc_lookahead=50 / rc=2pass / mbtree=1 / bitrate=12600 / ratetol=2.0 / qcomp=0.70 / qpmin=10 / qpmax=51 / qpstep=4 / cplxblur=20.0 / qblur=0.5 / vbv_maxrate=50000 / vbv_bufsize=50000 / ip_ratio=1.40 / aq=1:1.00
Язык : English
Default : Нет
Forced : Нет

Аудио #1
Идентификатор : 2
Формат : DTS
Формат/Информация : Digital Theater Systems
Режим : 16
Параметр Endianness формата : Big
Режим смешивания : Header stripping
Идентификатор кодека : A_DTS
Продолжительность : 2 ч. 3 м.
Вид битрейта : Постоянный
Битрейт : 1510 Кбит/сек
Каналы : 6 каналов
Расположение каналов : Front: L C R, Side: L R, LFE
Частота : 48,0 КГц
Битовая глубина : 24 бит
Метод сжатия : С потерями
Размер потока : 1,30 Гбайт (9%)
Заголовок : AVO Гоблин
Язык : Russian
Default : Да
Forced : Нет

Аудио #2
Идентификатор : 3
Формат : DTS
Формат/Информация : Digital Theater Systems
Режим : 16
Параметр Endianness формата : Big
Режим смешивания : Header stripping
Идентификатор кодека : A_DTS
Продолжительность : 2 ч. 3 м.
Вид битрейта : Постоянный
Битрейт : 1510 Кбит/сек
Каналы : 6 каналов
Расположение каналов : Front: L C R, Side: L R, LFE
Частота : 48,0 КГц
Битовая глубина : 24 бит
Метод сжатия : С потерями
Размер потока : 1,30 Гбайт (9%)
Заголовок : AVO Гаврилов
Язык : Russian
Default : Нет
Forced : Нет

Аудио #3
Идентификатор : 4
Формат : DTS
Формат/Информация : Digital Theater Systems
Режим : 16
Параметр Endianness формата : Big
Режим смешивания : Header stripping
Идентификатор кодека : A_DTS
Продолжительность : 2 ч. 3 м.
Вид битрейта : Постоянный
Битрейт : 1510 Кбит/сек
Каналы : 6 каналов
Расположение каналов : Front: L C R, Side: L R, LFE
Частота : 48,0 КГц
Битовая глубина : 24 бит
Метод сжатия : С потерями
Размер потока : 1,30 Гбайт (9%)
Заголовок : AVO Живов
Язык : Russian
Default : Нет
Forced : Нет
pb.wtf



Скачать Взвод через торрент http://pic.kartinco.top/images/3/jf7kyz4tip.jpg Скачать фильм Взвод через торрент бесплантно в хорошем качестве Описание: В сентябре 1967 года куда-то в приграничный район между Вьетнамом и Камбоджей прибыл рядовой 25-го пехотного полка Крис Тэйлор. ... 9.8 10 4
Info! Золотая раздача, скачанное не засчитывается.
Торрент: Зарегистрирован [2013-08-06 20:17] · скачан: 25 раз
Статус: √ проверено
Размер: 14.38 GB
Как cкачать? Как скачать Взвод через торрент | qTorrent

% Раздел Тема Автор DL S | L
Фильмы (HD 720p, 1080p) (48-60 fps) [ 3.25 GB ] Командир взвода / Platoon Leader [1988 военный BDRip 720p / 60 FPS Авторский ] от R.G. HD-Films slaventi-69 Скачать
1 | 0
Фильмы (Blu-ray, BD-Remux, HDDVD) [ 39.91 GB ] Взвод / Platoon [1986 военный BD Remux 1080p] [US Transfer / 4K Remastered] DUB+4xDVO+4xMVO+5xAVO+3xVO bober100 Скачать
2 | 0
Фильмы до 2000 г. [ 3.26 GB ] Взвод / Platoon [1986 военный BDRip-AVC Многоголосый + AVO + AVO ] capral555 Скачать
1 | 0
Фильмы [HD 720p, 1080p] (Хороший звук DUB, MVO) [ 7.91 GB ] Взвод / Platoon [1986 военный BDRip 720p многоголосый] -Lexx- Скачать
1 | 0
Фильмы до 2000 г. [ 2.08 GB ] Взвод / Platoon [1986 военный ... BDRip] mika1994 Скачать
1 | 0
Фильмы до 2000 г. [ 1.3 GB ] Взвод / Platoon [1986 военный DVDRip] feldeger Скачать
1 | 1

28-11-2019 20:33  

Отключить всю рекламу на сайте

19-03-2016 17:44 Взвод Скачать торрент  

На раздачу прошу вернуться.pb.wtf



    Дорогой пользователь! Огромная просьба, поблагодарите релизера, оцените раздачу и оставьте свои комментарий, если Вы скачали Взвод через торрент бесплатно! Внесите свою лепту в развитие PiratBit!
    Комментировать посты могут только пользователи прошедшие не сложную регистрацию
    Показать сообщения:    

    Взвод через торрент
    Скачать бесплатно Взвод
    Взвод скачать торрент
    Взвод смотреть онлайн
    Cкачать фильм Взвод бесплатно
    Взвод скачать торрент в хорошем качестве
    Взвод смотреть онлайн бесплатно в хорошем качестве


    Вы не можете начинать темы
    Вы не можете отвечать на сообщения
    Вы не можете редактировать свои сообщения
    Вы не можете удалять свои сообщения
    Вы не можете голосовать в опросах
    Вы не можете прикреплять файлы к сообщениям
    Вы можете скачивать файлы