Ссылка на приватное зеркало нашего сайта всего за 1$. Внимание количество ограничено!!!

2 сезон

iTunes

1 сезон

1

2 сезон

2 сезон

iTunes

1 сезон

RePack

30

Ultimate

ВАЖНО

ИГРА 18+

pack

RePack

MK11
pack

Забери бонус

RePack

jed

!!Акция!!

Alien_Rage

RePack

fifa19

RePack

Assassins Creed: Odyssey

RePack

NEED FOR SPEED™ PAYBACK

4 сезон

9 сезон

Бесстыжие 9 сезон

Все сериалы

все сериалы на PB.wtf

RePack

FAR CRY 5
  

Приют / El orfanato (Х.А. Байона / J.A. Bayona) [2007, Испания, Мексика, триллер, драма, детектив, BD Remux, 1080p, Дубляж|лицензия| +AVO Немахов] pb.wtf

Приют через торрент pb.wtf

Размер: 15.22 GB | Добавлен: 7 лет 3 мес. назад | Торрент скачан:0 раз
Скачать  

06-08-2013 21:42 Приют Скачать торрент  

Приют / El orfanato

«Un cuento de amor. Una historia de terror»

  • Год выпуска:2007
  • Страна:Испания, Мексика
  • Жанр:триллер, драма, детектив
  • Продолжительность: 01:45:33
  • Перевод:Профессиональный (полное дублирование)|Лицензия|

  • Субтитры: Нет
    • Режиссер:Х.А. Байона / J.A. Bayona

  • В ролях:Белен Руэда (Laura), Фернандо Кайо (Carlos), Рохер Принсеп (Simón), Мэйбл Ривера (Pilar), Монтсеррат Карулла (Benigna), Андрес Гертрудикс (Enrique), Эдгар Вивар (Prof. Leo Bálaban), Оскар Касас (Tomás), Мирейа Рено (Laura niña), Джорджина Авелланеда Рита (Rita), Карла Гордильо Алисия (Martín), Алехандро Кампс (Víctor)
    • Описание:
      Самые счастливые годы Лаура провела в сиротском приюте на побережье. Любимые воспитатели заменили ей родителей, а друзья - братьев и сестер. Через тридцать лет Лаура возвращается в дом своего детства с мужем и семилетним сыном. Она мечтает восстановить его и открыть для новых маленьких посетителей. Однако героиню поразили перемены, произошедшие с ее собственным сыном.
      Из милого мальчика он превратился в маленького монстра с жестокими фантазиями и опасными играми. Она уверена, что во всем виноват старый дом, таящий скрытую угрозу. Постепенно картины прошлого всплывают в памяти Лауры и открывают ей страшную истину....

  • Рейтинг
    kinopoisk.ru: 7.312 (19 110)
    imdb.com: 7.50 (81 387)
    MPAA: R - Лицам до 17 лет обязательно присутствие взрослого
    • Качество:BD Remux
    • Формат:MKV
    • Видео кодек: AVC
    • Аудио кодек: DTS / AC3
    • Видео: AVC, 1920x1080 (16:9), 17585 kbps, 23,976 fps, 0,354 bpp
    • Аудио №1: русский / DTS / 5.1 / 48 kHz / 755 kbps / 24 bit ||(Дубляж)
    • Аудио №2: русский / AC3 / 5.1 / 48 kHz / 384 kbps / 16 bit || (Авторский, одноголосый, Немахов)
    • Аудио №3: Spanish / DTS / 5.1 / 48 kHz / 1510 kbps / 16 bit

    General
    Unique ID : 233812577266769889947025241581430331263 (0xAFE6AA15ACF0D4AEB9819727E845577F)
    Complete name : D:ТорентыThe.Orphanage.BD-Remux.mkv
    Format : Matroska
    Format version : Version 1
    File size : 15.2 GiB
    Duration : 1h 45mn
    Overall bit rate mode : Variable
    Overall bit rate : 20.6 Mbps
    Encoded date : UTC 2008-09-26 16:06:14
    Writing application : mkvmerge v2.2.0 ('Turn It On Again') built on Mar 4 2008 12:58:26
    Writing library : libebml v0.7.7 + libmatroska v0.8.1

    Video
    ID : 1
    Format : AVC
    Format/Info : Advanced Video Codec
    Format profile : High@L4.1
    Format settings, CABAC : Yes
    Format settings, ReFrames : 4 frames
    Muxing mode : Container profile=Unknown@0.0
    Codec ID : V_MPEG4/ISO/AVC
    Duration : 1h 45mn
    Bit rate mode : Variable
    Bit rate : 17.6 Mbps
    Maximum bit rate : 33.0 Mbps
    Width : 1 920 pixels
    Height : 1 080 pixels
    Display aspect ratio : 16:9
    Frame rate : 23.976 fps
    Standard : NTSC
    Color space : YUV
    Chroma subsampling : 4:2:0
    Bit depth : 8 bits
    Scan type : Progressive
    Bits/(Pixel*Frame) : 0.354
    Stream size : 13.0 GiB (85%)
    Language : Spanish
    Default : Yes
    Forced : No
    Color primaries : BT.709-5, BT.1361, IEC 61966-2-4, SMPTE RP177
    Transfer characteristics : BT.709-5, BT.1361
    Matrix coefficients : BT.709-5, BT.1361, IEC 61966-2-4 709, SMPTE RP177

    Audio #1
    ID : 2
    Format : DTS
    Format/Info : Digital Theater Systems
    Codec ID : A_DTS
    Duration : 1h 45mn
    Bit rate mode : Constant
    Bit rate : 755 Kbps
    Channel(s) : 6 channels
    Channel positions : Front: L C R, Side: L R, LFE
    Sampling rate : 48.0 KHz
    Bit depth : 24 bits
    Compression mode : Lossy
    Stream size : 570 MiB (4%)
    Title : DTS - 768 Kbps (Dubbed)
    Language : Russian
    Default : Yes
    Forced : No

    Audio #2
    ID : 3
    Format : AC-3
    Format/Info : Audio Coding 3
    Mode extension : CM (complete main)
    Codec ID : A_AC3
    Duration : 1h 45mn
    Bit rate mode : Constant
    Bit rate : 384 Kbps
    Channel(s) : 6 channels
    Channel positions : Front: L C R, Side: L R, LFE
    Sampling rate : 48.0 KHz
    Bit depth : 16 bits
    Compression mode : Lossy
    Stream size : 290 MiB (2%)
    Title : AC3 - 384 Kbps (Nemahov)
    Language : Russian
    Default : No
    Forced : No

    Audio #3
    ID : 4
    Format : DTS
    Format/Info : Digital Theater Systems
    Codec ID : A_DTS
    Duration : 1h 45mn
    Bit rate mode : Constant
    Bit rate : 1 510 Kbps
    Channel(s) : 6 channels
    Channel positions : Front: L C R, Side: L R, LFE
    Sampling rate : 48.0 KHz
    Bit depth : 16 bits
    Compression mode : Lossy
    Stream size : 1.11 GiB (7%)
    Title : DTS - 1536 Kbps
    Language : Spanish
    Default : No
    Forced : No


    © Оформление by Vetalpb.wtf



  • Скачать Приют через торрент http://i2.imageban.ru/out/2013/08/07/ded2dbac654196acc8a99334dd734d09.png Скачать фильм Приют через торрент бесплантно в хорошем качестве Описание:Самые счастливые годы Лаура провела в сиротском приюте на побережье. Любимые воспитатели заменили ей родителей, а друзья - братьев ... 7 10 3
    Info! Золотая раздача, скачанное не засчитывается.
    Торрент: Зарегистрирован [2013-08-06 21:42] · скачан: 0 раз
    Статус: √ проверено
    Размер: 15.22 GB
    Как cкачать? Как скачать Приют через торрент | qTorrent

    % Раздел Тема Автор DL S | L
    Фильмы 2006-2008 [ 2.51 GB ] Приют / El orfanato [2007 . BDRip] nitles666 Скачать
    1 | 0

    28-11-2019 20:33  

    Отключить всю рекламу на сайте

    06-08-2013 23:44 Приют Скачать торрент  

    Соломон Немни писал(а):

    «Приют» — фильм-кандидат на премию «Оскар» в категории «Лучший фильм на иностранном языке» за 2007 год.

    Только причём здесь великий Гильермо дель Тормо на обложке справа вверху? Его нигде нет в списке создателей фильма.

    ТорМо - это сильно) он помогал режиссеру.pb.wtf



    06-08-2013 23:53 Приют Скачать торрент  

    Соломон Немни
    http://www.kinopoisk.ru/film/119975/cast/#producer
    Гильермо дель Торо (Guillermo del Toro)

    ... исполнительный продюсерpb.wtf



    11-10-2013 13:05 Приют Скачать торрент  

    Vetаl
    Блин, уже неделю качаю и всего 3.4%! Может кто то встанет на раздачу?!pb.wtf



    11-10-2013 13:58 Приют Скачать торрент  

    GALANT писал(а):

    Vetаl
    Блин, уже неделю качаю и всего 3.4%! Может кто то встанет на раздачу?!

    Уже не надо! Нашёл в другом местеpb.wtf



      Дорогой пользователь! Огромная просьба, поблагодарите релизера, оцените раздачу и оставьте свои комментарий, если Вы скачали Приют через торрент бесплатно! Внесите свою лепту в развитие PiratBit!
      Комментировать посты могут только пользователи прошедшие не сложную регистрацию
      Показать сообщения:    

      Приют через торрент
      Скачать бесплатно Приют
      Приют скачать торрент
      Приют смотреть онлайн
      Cкачать фильм Приют бесплатно
      Приют скачать торрент в хорошем качестве
      Приют смотреть онлайн бесплатно в хорошем качестве


      Вы не можете начинать темы
      Вы не можете отвечать на сообщения
      Вы не можете редактировать свои сообщения
      Вы не можете удалять свои сообщения
      Вы не можете голосовать в опросах
      Вы не можете прикреплять файлы к сообщениям
      Вы можете скачивать файлы