Ссылка на приватное зеркало нашего сайта всего за 1$. Внимание количество ограничено!!!

2 сезон

iTunes

1 сезон

1

2 сезон

2 сезон

iTunes

1 сезон

RePack

30

Ultimate

ВАЖНО

ИГРА 18+

pack

RePack

MK11
pack

Забери бонус

RePack

jed

!!Акция!!

Alien_Rage

RePack

fifa19

RePack

Assassins Creed: Odyssey

RePack

NEED FOR SPEED™ PAYBACK

4 сезон

9 сезон

Бесстыжие 9 сезон

Все сериалы

все сериалы на PB.wtf

RePack

FAR CRY 5
  

Фантазии Уайлда / Into The Wilde (mr.Pam / NakedSword) [2013 г., Oral, Anal, Big Dicks, Cumshots, Bukkake, Muscles, Rimming, Threesome, DVDRip, Оригинал] pb.wtf

Фантазии Уайлда через торрент pb.wtf

Размер: 2.66 GB | Добавлен: 7 лет 3 мес. назад | Торрент скачан:288 раз
Скачать  

07-08-2013 05:31 Фантазии Уайлда Скачать торрент  

Фантазии Уайлда / Into The Wilde
Год выпуска: 2013
Страна: США
Жанр: Oral, Anal, Big Dicks, Cumshots, Bukkake, Muscles, Rimming, Threesome,
Продолжительность: 01:44:24
Перевод: Оригинал (Английский )

Режиссер: mr.Pam / NakedSword

В ролях: Ashton Webber, Brandon Jones, Christian Wilde, Connor Maguire, Lance Luciano, Rod Daily,

Описание: Christian Wilde was so turned on by his first time bottoming that NakedSword asked the sex-crazed stud if he had any other hot fantasies he wanted to live out. Of course he did! Before we knew it, we had Into the Wilde — a NakedSword Original series where Christian's act outs his dirtiest sex dreams. In the first episode, it's sex on the road when Christian gives Brandon Jones a tour of San Francisco that isn't in any guide book — but should be. It's two hot boys in the back of a moving van, fucking like there's no tomorrow in front of the city's most famous tourist sites! It's San Francisco like you've never seen it before (unless you've seen a double-cum shot on the Golden Gate Bridge, that is!). One fantasy down, three to go …

Качество: DVDRip
Формат: MP4
Видео кодек: MPEG4
Аудио кодек: AАС
Видео: 3544 Кбит/сек (64,0 Кбит/сек), 1280х720 (16:9), в 30,000 кадр/сек ,MPEG-4 Visual ( Advanced Simple@L5 )
Аудио#1: 96,0 Кбит/сек , 48,0 КГц ,2 канала , AAC ( LC )





Общее
Полное имя : D:TorrentInto_The_Wilde.mp4
Формат : MPEG-4
Профиль формата : Base Media / Version 1
Идентификатор кодека : mp41
Размер файла : 2,66 Гбайт
Продолжительность : 1 ч. 44 м.
Общий поток : 3642 Кбит/сек
Дата кодирования : UTC 2013-06-06 22:00:22
Дата пометки : UTC 2013-06-06 22:00:22
Библиотека кодирования : AVS

Видео
Идентификатор : 1
Формат : MPEG-4 Visual
Профиль формата : Advanced Simple@L5
Параметр BVOP формата : Нет
Параметр QPel формата : Нет
Параметр GMC формата : Без точки перехода
Параметр матрицы формата : Default (H.263)
Идентификатор кодека : 20
Продолжительность : 1 ч. 44 м.
Вид битрейта : Постоянный
Битрейт : 3544 Кбит/сек
Номинальный битрейт : 64,0 Кбит/сек
Ширина : 1280 пикс.
Высота : 720 пикс.
Соотношение сторон : 16:9
Режим частоты кадров : Постоянный
Частота кадров : 30,000 кадр/сек
Цветовое пространство : YUV
Подвыборка цветности : 4:2:0
Битовая глубина : 8 бит
Тип развёртки : Прогрессивная
Метод сжатия : С потерями
Бит/(Пиксели*Кадры) : 0.128
Размер потока : 2,58 Гбайт (97%)
Библиотека кодирования : XviD 1.2.1 (UTC 2008-12-04)
Язык : English
Дата кодирования : UTC 2013-06-06 22:00:22
Дата пометки : UTC 2013-06-06 22:00:22
Material_Duration : 6264067
Material_StreamSize : 2775295954
Material_FrameCount : 187922

Аудио
Идентификатор : 2
Формат : AAC
Формат/Информация : Advanced Audio Codec
Профиль формата : LC
Идентификатор кодека : 40
Продолжительность : 1 ч. 44 м.
Вид битрейта : Постоянный
Битрейт : 96,0 Кбит/сек
Каналы : 2 канала
Расположение каналов : Front: L R
Частота : 48,0 КГц
Метод сжатия : С потерями
Размер потока : 69,7 Мбайт (3%)
Язык : English
Дата кодирования : UTC 2013-06-06 22:00:22
Дата пометки : UTC 2013-06-06 22:00:22
Material_Duration : 6264000
Material_StreamSize : 73109429

pb.wtf



pack Скачать Фантазии Уайлда через торрент http://pic.kartinco.top/images/3/xqj472b4lp.jpg Скачать фильм Фантазии Уайлда через торрент бесплантно в хорошем качестве Описание: Christian Wilde was so turned on by his first time bottoming that NakedSword asked the sex-crazed stud if he had any other hot ... 8.8 10 12
Info! Золотая раздача, скачанное не засчитывается.
Торрент: Зарегистрирован [2013-08-07 05:31] · скачан: 288 раз
Статус: √ проверено
Размер: 2.66 GB
Как cкачать? Как скачать Фантазии Уайлда через торрент | qTorrent

28-11-2019 20:33  

Отключить всю рекламу на сайте

    Дорогой пользователь! Огромная просьба, поблагодарите релизера, оцените раздачу и оставьте свои комментарий, если Вы скачали Фантазии Уайлда через торрент бесплатно! Внесите свою лепту в развитие PiratBit!
    Комментировать посты могут только пользователи прошедшие не сложную регистрацию
    Показать сообщения:    

    Фантазии Уайлда через торрент
    Скачать бесплатно Фантазии Уайлда
    Фантазии Уайлда скачать торрент
    Фантазии Уайлда смотреть онлайн
    Cкачать фильм Фантазии Уайлда бесплатно
    Фантазии Уайлда скачать торрент в хорошем качестве
    Фантазии Уайлда смотреть онлайн бесплатно в хорошем качестве


    Вы не можете начинать темы
    Вы не можете отвечать на сообщения
    Вы не можете редактировать свои сообщения
    Вы не можете удалять свои сообщения
    Вы не можете голосовать в опросах
    Вы не можете прикреплять файлы к сообщениям
    Вы можете скачивать файлы