Ссылка на приватное зеркало нашего сайта всего за 1$. Внимание количество ограничено!!!

2 сезон

iTunes

1 сезон

1

2 сезон

2 сезон

iTunes

1 сезон

RePack

30

Ultimate

ВАЖНО

ИГРА 18+

pack

RePack

MK11
pack

Забери бонус

RePack

jed

!!Акция!!

Alien_Rage

RePack

fifa19

RePack

Assassins Creed: Odyssey

RePack

NEED FOR SPEED™ PAYBACK

4 сезон

9 сезон

Бесстыжие 9 сезон

Все сериалы

все сериалы на PB.wtf

RePack

FAR CRY 5
  

Новый День / Day Break / Полный 1 сезон / Серии 1-13 (Пауль Збужевски / Paul Zbyszewski) [2006 г., боевик, драма, триллер, HDTVRip] ("ТВ3") pb.wtf

Новый День через торрент pb.wtf

Размер: 4.43 GB | Добавлен: 7 лет 3 мес. назад | Торрент скачан:49 раз
Скачать  

07-08-2013 05:32 Новый День Скачать торрент  

Новый День / Day Break «Для каждого решения есть последствие»
Год выпуска: 2006
Страна: США
Жанр: боевик, драма, триллер
Продолжительность: 00:43:00 серия
Перевод:Профессиональный (многоголосый, закадровый) (ТВ3)

Режиссер: Пауль Збужевски / Paul Zbyszewski

Премьера в мире: 15 ноября 2006




В ролях: Тэй Диггз, Мун Блудгуд, Виктория Прэтт, Мета Голдинг, Рамон Родригес, Адам Болдуин,

Описание: Был ли у Вас в жизни день настолько плохой, что вам хотелось, чтобы он побыстрее закончился? День, когда ничего не получается и все идет наперекосяк. А что, если бы этот день не кончался… В прямом смысле этого слова…
Сегодня, Детектив Бретт Хоппер будет осуждён за убийство помощника окружного прокурора Альберто Гарза. У него будет стопроцентное алиби. Он поймёт, что его подставили… И пустится в бега. Утром он проснётся и всё произойдёт с самого начала, только в этот раз — он поступит иначе. События будут повторяться до тех пор, пока он не выяснит, кто его подставил, и не спасёт своих близких. У Хоппера есть одно преимущество — он помнит все события прошедших дней... Это нелегко, потому что и раны не заживают.
1. Pilot ("Пилотная серия")
2. What If They Run? ("А если они убегут?")
3. What If He Lets Her Go? ("А если он про нее забудет?")
4. What If He Can Change The Day? ("А что, если он может изменить день?")
5. What If They're Stuck? ("А что, если они зайдут в тупик?")
6. What If They Find Him? ("Что, если они найдут его?")
7. What If He's Not Alone? ("Что, если он не одинок?")
8. What If She's Lying? ("Что, если она лжёт?")
9. What If They're Connected? ("Что, если они связаны?")
10. What If He's Free? ("Что, если он свободен?")
11. What If He Walks Away? ("Что, если он уйдёт?")
12. What If She's The Key? ("Что, если она - ключ?")
13. What If It's Him? ("Что, если это он?")
Качество: HDTVRip
Формат: AVI
Видео кодек: XviD
Аудио кодек: MP3
Видео: 656x368 (1.78:1), 25 fps, 50 ~1067 kbps
Аудио#1: 48 kHz, 3, 2 ch, ~128.00 kbps (ТВ3)




E:Новый день - 1 СЕЗОНDay Break S01E01 Pilot_HDTVRip_by_Scarabey.avi
General
Complete name : E:Новый день - 1 СЕЗОНDay Break S01E01 Pilot_HDTVRip_by_Scarabey.avi
Format : AVI
Format/Info : Audio Video Interleave
File size : 349 MiB
Duration : 40mn 30s
Overall bit rate : 1 206 Kbps
Writing application : VirtualDubMod 1.5.10.2 (build 2540/release)
Writing library : VirtualDubMod build 2540/release
Video #0
ID : 0
Format : MPEG-4 Visual
Format profile : Advanced Simple@L5
Format settings, BVOP : 1
Format settings, QPel : No
Format settings, GMC : No warppoints
Format settings, Matrix : Custom
Codec ID : XVID
Codec ID/Hint : XviD
Duration : 40mn 30s
Bit rate : 1 068 Kbps
Width : 656 pixels
Height : 368 pixels
Display aspect ratio : 16:9
Frame rate : 25.000 fps
Color space : YUV
Chroma subsampling : 4:2:0
Bit depth : 8 bits
Scan type : Progressive
Compression mode : Lossy
Bits/(Pixel*Frame) : 0.177
Stream size : 309 MiB (89%)
Writing library : XviD 1.2.1 (UTC 2008-12-04)
Audio #1
ID : 1
Format : MPEG Audio
Format version : Version 1
Format profile : Layer 3
Codec ID : 55
Codec ID/Hint : MP3
Duration : 40mn 30s
Bit rate mode : Constant
Bit rate : 128 Kbps
Channel(s) : 2 channels
Sampling rate : 48.0 KHz
Compression mode : Lossy
Stream size : 37.1 MiB (11%)
Alignment : Aligned on interleaves
Interleave, duration : 40 ms (1.00 video frame)
Interleave, preload duration : 504 ms
Writing library : LAME3.97
Encoding settings : -m s -V 4 -q 2 -lowpass 17 -b 128


Новый День скачать торрент


pb.wtf



Скачать Новый День через торрент http://pic.kartinco.top/images/3/dro8mzjzh7.jpg Скачать фильм Новый День через торрент бесплантно в хорошем качестве Описание: Был ли у Вас в жизни день настолько плохой, что вам хотелось, чтобы он побыстрее закончился? День, когда ничего не получается и ... 10 10 5
Info! Золотая раздача, скачанное не засчитывается.
Торрент: Зарегистрирован [2013-08-07 05:32] · скачан: 49 раз
Статус: √ проверено
Размер: 4.43 GB
Как cкачать? Как скачать Новый День через торрент | qTorrent

28-11-2019 20:33  

Отключить всю рекламу на сайте

07-08-2013 05:45 Новый День Скачать торрент  

Assasinca
В раздаче надо указывать жанр. Дополнительную информацию прячем в спойлер.pb.wtf



07-08-2013 05:48 Новый День Скачать торрент  

пропустила pb.wtf



02-02-2015 02:48 Новый День Скачать торрент  

блин, раздачи нет(( ну и .. не смертельноpb.wtf



    Дорогой пользователь! Огромная просьба, поблагодарите релизера, оцените раздачу и оставьте свои комментарий, если Вы скачали Новый День через торрент бесплатно! Внесите свою лепту в развитие PiratBit!
    Комментировать посты могут только пользователи прошедшие не сложную регистрацию
    Показать сообщения:    

    Новый День через торрент
    Скачать бесплатно Новый День
    Новый День скачать торрент
    Новый День смотреть онлайн
    Cкачать фильм Новый День бесплатно
    Новый День скачать торрент в хорошем качестве
    Новый День смотреть онлайн бесплатно в хорошем качестве


    Вы не можете начинать темы
    Вы не можете отвечать на сообщения
    Вы не можете редактировать свои сообщения
    Вы не можете удалять свои сообщения
    Вы не можете голосовать в опросах
    Вы не можете прикреплять файлы к сообщениям
    Вы можете скачивать файлы