Ссылка на приватное зеркало нашего сайта всего за 1$. Внимание количество ограничено!!!

2 сезон

iTunes

1 сезон

1

iTunes

iTunes

iTunes

1 сезон

RePack

30

ИГРА 18+

pack

ВАЖНО

!!Акция!!

Alien_RageХит недели

RePack

MK11
pack

Забери бонус

RePack

jed

!!Акция!!

Alien_Rage

RePack

fifa19

RePack

Assassins Creed: Odyssey

RePack

NEED FOR SPEED™ PAYBACK

4 сезон

9 сезон

Бесстыжие 9 сезон

Все сериалы

все сериалы на PB.wtf

RePack

FAR CRY 5
  

Молот богов / Hammer of the Gods (Фэррен Блэкберн) [2013 г., боевик, HDRip, DVO] pb.wtf

Молот богов через торрент pb.wtf

Размер: 2.06 GB | Добавлен: 7 лет 2 мес. назад | Торрент скачан:538 раз
Скачать  

07-08-2013 09:40 Молот богов Скачать торрент  


Молот богов / Hammer of the Gods
Год выпуска: 2013
Страна: Великобритания / Vertigo Films
Жанр: боевик,
Продолжительность: 01:38:49
Перевод: Любительское (двухголосое) / Любительское (одноголосое) [den904]

Режиссер: Фэррен Блэкберн



В ролях: Чарли Бьюли, Клайв Стэнден, Джеймс Космо, Эллиот Кауэн, Глайнис Барбер, Айван Кэй, Майкл Джибсон, Гай Флэнеган, Тео Барклем-Биггз, Александра Доулинг,

Описание: Страстный молодой человек превращается в жестокого воина, во время своих путешествий в поисках давно потерянного брата.
Качество: HDRip
Формат: AVI
Видео кодек: XviD
Аудио кодек: AC3
Видео: 720x304 (2.37:1), 23.976 fps, XviD build 73 ~2141 kbps avg, 0.41 bit/pixel
Аудио#1: 48 kHz, AC3 Dolby Digital, 3/2 (L,C,R,l,r) + LFE ch, ~448 kbps
Аудио#2: 48 kHz, AC3 Dolby Digital, 3/2 (L,C,R,l,r) + LFE ch, ~384 kbps


Video #0
ID : 0
Format : MPEG-4 Visual
Format profile : Advanced Simple@L5
Format settings, BVOP : 2
Format settings, QPel : No
Format settings, GMC : No warppoints
Format settings, Matrix : Custom
Codec ID : XVID
Codec ID/Hint : XviD
Duration : 1h 38mn
Bit rate : 2 130 Kbps
Width : 720 pixels
Height : 304 pixels
Display aspect ratio : 2.35:1
Frame rate : 23.976 fps
Color space : YUV
Chroma subsampling : 4:2:0
Bit depth : 8 bits
Scan type : Progressive
Compression mode : Lossy
Bits/(Pixel*Frame) : 0.406
Stream size : 1.47 GiB (71%)
Writing library : XviD 73
Audio #1
ID : 1
Format : AC-3
Format/Info : Audio Coding 3
Mode extension : CM (complete main)
Format settings, Endianness : Big
Codec ID : 2000
Duration : 1h 38mn
Bit rate mode : Constant
Bit rate : 448 Kbps
Channel(s) : 6 channels
Channel positions : Front: L C R, Side: L R, LFE
Sampling rate : 48.0 KHz
Bit depth : 16 bits
Compression mode : Lossy
Stream size : 317 MiB (15%)
Alignment : Split accross interleaves
Interleave, duration : 42 ms (1.00 video frame)
Interleave, preload duration : 500 ms
Audio #2
ID : 2
Format : AC-3
Format/Info : Audio Coding 3
Mode extension : CM (complete main)
Format settings, Endianness : Big
Codec ID : 2000
Duration : 1h 38mn
Bit rate mode : Constant
Bit rate : 384 Kbps
Channel(s) : 6 channels
Channel positions : Front: L C R, Side: L R, LFE
Sampling rate : 48.0 KHz
Bit depth : 16 bits
Compression mode : Lossy
Stream size : 271 MiB (13%)
Alignment : Split accross interleaves
Interleave, duration : 42 ms (1.00 video frame)
Interleave, preload duration : 500 ms

pb.wtf



Скачать Молот богов через торрент http://i48.fastpic.ru/big/2013/0604/ca/d88598c9f0825a64dbdfabedacfcf4ca.jpg Скачать фильм Молот богов через торрент бесплантно в хорошем качестве Описание: Страстный молодой человек превращается в жестокого воина, во время своих путешествий в поисках давно потерянного ... 9.7 10 24
Info! Золотая раздача, скачанное не засчитывается.
Торрент: Зарегистрирован [2013-08-07 09:40] · скачан: 538 раз
Статус: √ проверено
Размер: 2.06 GB
Как cкачать? Как скачать Молот богов через торрент | qTorrent

% Раздел Тема Автор DL S | L
# Фильмы [HD 720p, 1080p] (Хороший звук DUB, MVO) [ 6.92 GB ] Молот богов / Hammer of the Gods [2013 BDRip 1080p]MVO Assasinca Скачать
1 | 0
Фильмы 2013 (Звук TS, Cam, VO, DVO) [ 1.46 GB ] Молот богов / Hammer of the Gods [2013 WEB-DLRip VO] [den904] Ворон Скачать
1 | 0
Фильмы 2009 [ 2.23 GB ] Тор: Молот богов / Thor: Hammer Of The Gods [2009 BDRip-AVC] smaster Скачать
2 | 0
Фильмы 2009 [ 1.09 GB ] Молот богов / Hammer of the Gods [2009 DVDRip] aspace Скачать
1 | 0

28-11-2019 20:33  

Отключить всю рекламу на сайте

07-08-2013 09:52 Молот богов Скачать торрент  

качаю. посмотрю отпишусьpb.wtf



07-08-2013 10:35 Молот богов Скачать торрент  

Можно не качать,за качество+ и спасибо!pb.wtf



    Дорогой пользователь! Огромная просьба, поблагодарите релизера, оцените раздачу и оставьте свои комментарий, если Вы скачали Молот богов через торрент бесплатно! Внесите свою лепту в развитие PiratBit!
    Комментировать посты могут только пользователи прошедшие не сложную регистрацию
    Показать сообщения:    

    Молот богов через торрент
    Скачать бесплатно Молот богов
    Молот богов скачать торрент
    Молот богов смотреть онлайн
    Cкачать фильм Молот богов бесплатно
    Молот богов скачать торрент в хорошем качестве
    Молот богов смотреть онлайн бесплатно в хорошем качестве


    Вы не можете начинать темы
    Вы не можете отвечать на сообщения
    Вы не можете редактировать свои сообщения
    Вы не можете удалять свои сообщения
    Вы не можете голосовать в опросах
    Вы не можете прикреплять файлы к сообщениям
    Вы можете скачивать файлы