1 сезон

1 сезон

iTunes

1

КиноПоиск HD

Кинопоиск HD

iTunes

13

1 сезон

RePack

30

Ultimate

ВАЖНО

ИГРА 18+

pack

RePack

MK11
pack

Легкие деньги

RePack

jed

RePack

fifa19

RePack

RDR2

RePack

NEED FOR SPEED™ PAYBACK

4 сезон

9 сезон

Бесстыжие 9 сезон

Все сериалы

все сериалы на PB.wtf

RePack

FAR CRY 5
  
Magnet ссылка

Дум / Doom (Анджей Бартковяк / Andrzej Bartkowiak) [2005 г., ужасы, фантастика, боевик, триллер, приключения, BDRip] pb.wtf

Дум через торрент pb.wtf

Размер: 1.36 GB | Добавлен: 7 лет 8 мес. назад | Торрент скачан:326 раз
Скачать  

07-08-2013 15:42 Дум Скачать торрент  

Дум / Doom
Год выпуска: 2005
Страна: Германия, США, Великобритания, Чехия
Жанр: ужасы, фантастика, боевик, триллер, приключения
Продолжительность: 01:52:44
Перевод: Профессиональный (полное дублирование)
Русские субтитры: нет

Режиссер: Анджей Бартковяк / Andrzej Bartkowiak

В ролях: Карл Урбан /Karl Urban, Дуэйн 'Скала' Джонсон /Dwayne 'The Rock' Johnson, Розамунд Пайк /Rosamund Pike, Доби Опарей /Deobia Oparei, Бен Дэниелс /Ben Daniels, Разаак Адоти /Razaaq Adoti, Ричард Брэйк /Richard Brake, Аль Уивер /Al Weaver, Декстер Флетчер /Dexter Fletcher, Яо Чин /Yao Chin, Роберт Рассел /Robert Russel, Дэниел Йорк /Daniel York, Ян Хьюджс /Ian Hughes, Сара Хотон /Sara Houghton, Бланка Яросова /Blanka Jarosova

Описание: События фильма происходят в 2145 году. «Объединенная Аэрокосмическая Корпорация» (UAC) расширила свою деятельность за пределы Земли — на Марсе она построила огромный научный комплекс, где официально занимается раскопками каких-то древних цивилизаций, найденных на Марсе, но настоящая деятельность компании держится в тайне. Однажды с марсианской базы приходит сигнал тревоги — что-то напало на базу и убило всех ученых, работающих там. Базу закрывают на карантин, а на Марс отправляют группу военного спецназа для расследования произошедших событий и спасения выживших. Уже вскоре обнаруживается, что на людей здесь охотятся полчища ужасных существ-мутантов…

| IMDB: 5.2/10 |
Качество: BDRip (Blu-Ray)
Формат: MKV
Видео кодек: H.264
Аудио кодек: AC3
Видео: AVC, 720x304 (2.35:1), 23.976 fps, 1 348 Kbps (0.257 bit/pixel)
Аудио: AC-3, 48.0 KHz, 6 ch, 384 Kbps, CBR

General
Unique ID : 193687810517028170824925238846453629484 (0x91B6EA588E4A1E46A3A0FA8F6B62C22C)
Complete name : D:x264Doom.UNRATED.2005.D.x264.HDRip.Rus.1400MB.mkv
Format : Matroska
Format version : Version 2
File size : 1.36 GiB
Duration : 1h 52mn
Overall bit rate : 1 733 Kbps
Encoded date : UTC 2013-08-07 13:43:47
Writing application : mkvmerge v6.2.0 ('Promised Land') built on Apr 28 2013 12:22:01
Writing library : libebml v1.3.0 + libmatroska v1.4.0

Video
ID : 1
Format : AVC
Format/Info : Advanced Video Codec
Format profile : High@L4.1
Format settings, CABAC : Yes
Format settings, ReFrames : 12 frames
Codec ID : V_MPEG4/ISO/AVC
Duration : 1h 52mn
Bit rate : 1 348 Kbps
Width : 720 pixels
Height : 304 pixels
Display aspect ratio : 2.35:1
Frame rate mode : Constant
Frame rate : 23.976 fps
Color space : YUV
Chroma subsampling : 4:2:0
Bit depth : 8 bits
Scan type : Progressive
Bits/(Pixel*Frame) : 0.257
Stream size : 1.04 GiB (76%)
Writing library : x264 core 133 r2334 a3ac64b
Encoding settings : cabac=1 / ref=12 / deblock=1:-3:-3 / analyse=0x3:0x113 / me=umh / subme=7 / psy=1 / psy_rd=1.00:0.15 / mixed_ref=1 / me_range=32 / chroma_me=1 / trellis=1 / 8x8dct=1 / cqm=0 / deadzone=21,11 / fast_pskip=1 / chroma_qp_offset=-2 / threads=6 / lookahead_threads=1 / sliced_threads=0 / nr=0 / decimate=1 / interlaced=0 / bluray_compat=0 / constrained_intra=0 / bframes=3 / b_pyramid=2 / b_adapt=1 / b_bias=0 / direct=1 / weightb=1 / open_gop=0 / weightp=2 / keyint=240 / keyint_min=22 / scenecut=40 / intra_refresh=0 / rc_lookahead=40 / rc=2pass / mbtree=1 / bitrate=1348 / ratetol=1.0 / qcomp=0.60 / qpmin=10 / qpmax=51 / qpstep=4 / cplxblur=20.0 / qblur=0.5 / vbv_maxrate=50000 / vbv_bufsize=62500 / nal_hrd=none / ip_ratio=1.40 / aq=1:1.00
Default : Yes
Forced : No

Audio
ID : 2
Format : AC-3
Format/Info : Audio Coding 3
Mode extension : CM (complete main)
Format settings, Endianness : Big
Codec ID : A_AC3
Duration : 1h 52mn
Bit rate mode : Constant
Bit rate : 384 Kbps
Channel(s) : 6 channels
Channel positions : Front: L C R, Side: L R, LFE
Sampling rate : 48.0 KHz
Bit depth : 16 bits
Compression mode : Lossy
Stream size : 310 MiB (22%)
Default : Yes
Forced : No
pb.wtf



Скачать Дум через торрент http://i32.fastpic.ru/big/2012/0221/da/37f04346b820aa9abf59d800aac424da.png Скачать фильм Дум через торрент бесплантно в хорошем качестве Описание: События фильма происходят в 2145 году. «Объединенная Аэрокосмическая Корпорация» (UAC) расширила свою деятельность за пределы ... 9 10 20
Info! Золотая раздача, скачанное не засчитывается.
Торрент: Зарегистрирован [2013-08-07 15:42] · скачан: 326 раз
Статус: √ проверено
Размер: 1.36 GB
Как cкачать? Как скачать Дум через торрент | UTorrent

% Раздел Тема Автор DL S | L
Фильмы 2019-2020 [DVDrip, WEB-DLRip, HDrip] (DUB, MVO) [ 1.89 GB ] Дум: Аннигиляция / Doom: Annihilation [2019 BDRip-AVC] DUB - ExKinoRay Enigma2010 Скачать
2 | 0
Фильмы [HD 720p, 1080p] (Хороший звук DUB, MVO) [ 7.92 GB ] Дум / Doom [2005 BDRip 720p] [Unrated Extended Edition] DUB + 2хMVO + 2хDVO + 3хAVO - KORSAR kisa1980 Скачать
1 | 0
# Фильмы (мультфильмы) cо спонсором показа (Новинки AVI/MKV) [ 4.9 GB ] Дум: Аннигиляция / Doom: Annihilation [2019 BDRip 720p] MVO [@MUZOBOZ@] bober100 Скачать
1 | 0
T Фильмы (мультфильмы) cо спонсором показа (Новинки AVI/MKV) [ 1.37 GB ] Дум: Аннигиляция / Doom: Annihilation [2019 HDRip] MVO [@MUZOBOZ@] bober100 Скачать
1 | 0
# Фильмы (мультфильмы) cо спонсором показа (Новинки AVI/MKV) [ 9.14 GB ] Дум: Аннигиляция / Doom: Annihilation [2019 BDRip 1080p] MVO [@MUZOBOZ@] bober100 Скачать
1 | 0
Фильмы [HD 720p, 1080p] (Хороший звук DUB, MVO) [ 13.26 GB ] Дум / Doom [2005 BDRip 1080р] smaster Скачать
1 | 0
Фильмы [HD 720p, 1080p] (Хороший звук DUB, MVO) [ 7.74 GB ] Дум / Doom [2005 Чехия Германия BDRip 1080p от _denis_100] DUB MVO 2xDVO 2xAVO _denis_100 Скачать
1 | 0


Последний раз редактировалось: TekkenxD (2013-08-08 06:25), всего редактировалось 2 раз(а)

28-11-2019 20:33  

Отключить всю рекламу на сайте

07-08-2013 15:48 Дум Скачать торрент  

Видео кодек:
Аудио кодек:
Отдельной строкойpb.wtf



    Дорогой пользователь! Огромная просьба, поблагодарите релизера, оцените раздачу и оставьте свои комментарий, если Вы скачали Дум через торрент бесплатно! Внесите свою лепту в развитие PiratBit!
    Комментировать посты могут только пользователи прошедшие не сложную регистрацию
    Показать сообщения:    

    Дум через торрент
    Скачать бесплатно Дум
    Дум скачать торрент
    Дум смотреть онлайн
    Cкачать фильм Дум бесплатно
    Дум скачать торрент в хорошем качестве
    Дум смотреть онлайн бесплатно в хорошем качестве


    Вы не можете начинать темы
    Вы не можете отвечать на сообщения
    Вы не можете редактировать свои сообщения
    Вы не можете удалять свои сообщения
    Вы не можете голосовать в опросах
    Вы не можете прикреплять файлы к сообщениям
    Вы можете скачивать файлы