MEGA NEWS Получи личный уникальный адрес сайта и защити себя от блокировок. Внимание количество ограничено!!!

iTunes

1+1

iTunes

мы

iTunes

1

iTunes

Чернобыль

iTunes

Ральф против интернета

Лицензия

ПШазам

Лицензия

Игра престолов

Лицензия

30
pack

ВАЖНО

!!Акция!!

Alien_RageХит недели

RePack

Resident Evil 21

ИГРА 18+

pack

RePack

Metro:Exodus

!!Акция!!

Alien_Rage

RePack

fifa19

RePack

Assassins Creed: Odyssey

RePack

NEED FOR SPEED™ PAYBACK

3 сезон

9 сезон

Бесстыжие 9 сезон

Все сериалы

все сериалы на PB.wtf

RePack

FAR CRY 5
Ребята, катастрофически не хватает 1900р. для оплаты серверов за АВГУСТ (всвязи с блокировками трафик упал в 3 раза), 1-2р., выручайте.
  

Парк Юрского периода / Jurassic Park (Стивен Спилберг / Steven Spielberg) [1993, Приключения, фантастика, семейный, BDRip] [Dub] 2013] pb.wtf

Парк Юрского периода через торрент pb.wtf

Размер: 1.46 GB | Добавлен: 6 лет 2 мес. назад | Торрент скачан:534 раза
Скачать  

07-08-2013 17:14 Парк Юрского периода Скачать торрент  

Парк Юрского периода / Jurassic Park
Год выпуска: 1993
Страна: США
Жанр: фантастика, приключения
Продолжительность: 02:06:42
Перевод: Профессиональный (полное дублирование) [Новый кинотеатральный дубляж 2013 года]
Cубтитры: нет

Режиссер: Стивен Спилберг / Steven Spielberg

В ролях: Сэм Нил, Лора Дерн, Джефф Голдблюм, Ричард Аттенборо, Джозеф Маццелло, Ариана Ричардс, Уэйн Найт, Боб Пек, Мартин Ферреро, Сэмюэл Л. Джексон, Б.Д. Вонг, Джералд Р. Молен, Мигель Сандовал и др.

Описание: Экспансивный богач и профессор уговаривает пару ученых-палеонтологов приехать на остров у побережья Коста-Рики, где он устроил реликтовый парк. В парке этом водятся древние зверушки — динозавры, которые по его идее и должны стать гвоздем программы нового аттракциона.
До открытия остается несколько дней, а один из работников, пытаясь продать «рассаду» налево, нарушает систему охраны, что в комплексе с грозовым ливнем приводит к тому, что доисторические животные оказываются на воле, где действуют в соответствии со своими инстинктами.




Качество видео: BDRip [Исх. JURASSIC_PARK_3D_G72_HDCLUB]
Формат видео: AVI
Видео кодек: XviD
Аудио: AC3
Видео: 720x384 (1.88:1), 23.976 fps, XviD build 73 ~1450 kbps avg, 0.22 bit/pixel
Аудио: 48 kHz, AC3 Dolby Digital, 2/0 (L,R) ch, ~192.00 kbps avg
General
Complete name : D:Park_Urskogo_perioda_1993_BDRip_by_Dalemake.avi
Format : AVI
Format/Info : Audio Video Interleave
File size : 1.46 GiB
Duration : 2h 6mn
Overall bit rate : 1 652 Kbps
Writing application : VirtualDubMod 1.5.10.3 (build 2550/release)
Writing library : VirtualDubMod build 2550/release

Video
ID : 0
Format : MPEG-4 Visual
Format profile : Advanced Simple@L5
Format settings, BVOP : 1
Format settings, QPel : No
Format settings, GMC : No warppoints
Format settings, Matrix : Custom
Codec ID : XVID
Codec ID/Hint : XviD
Duration : 2h 6mn
Bit rate : 1 450 Kbps
Width : 720 pixels
Height : 384 pixels
Display aspect ratio : 1.85:1
Frame rate : 23.976 fps
Color space : YUV
Chroma subsampling : 4:2:0
Bit depth : 8 bits
Scan type : Progressive
Compression mode : Lossy
Bits/(Pixel*Frame) : 0.219
Stream size : 1.28 GiB (88%)
Writing library : XviD 73

Audio
ID : 1
Format : AC-3
Format/Info : Audio Coding 3
Mode extension : CM (complete main)
Format settings, Endianness : Big
Codec ID : 2000
Duration : 2h 6mn
Bit rate mode : Constant
Bit rate : 192 Kbps
Channel(s) : 2 channels
Channel positions : Front: L R
Sampling rate : 48.0 KHz
Bit depth : 16 bits
Compression mode : Lossy
Stream size : 174 MiB (12%)
Alignment : Split accross interleaves
Interleave, duration : 42 ms (1.00 video frame)
Interleave, preload duration : 500 ms
pb.wtf



Скачать Парк Юрского периода через торрент http://i50.fastpic.ru/big/2013/0807/34/e255317d5ecef806803055c2336ec934.png Скачать фильм Парк Юрского периода через торрент бесплантно в хорошем качестве Описание: Экспансивный богач и профессор уговаривает пару ученых-палеонтологов приехать на остров у побережья Коста-Рики, где он устроил ... 10 10 17
Info! Золотая раздача, скачанное не засчитывается.
Торрент: Зарегистрирован [2013-08-07 17:14] · скачан: 534 раз
Статус: √ проверено
Размер: 1.46 GB
Как cкачать? Как скачать Парк Юрского периода через торрент | qTorrent

% Раздел Тема Автор DL S | L
Ultra HD (UHD: 2K, 4K, 8K) — видео сверхвысокой чёткости [ 32.87 GB ] Парк Юрского периода 2: Затерянный мир / Lost World: Jurassic Park The [1997 UHD BDRip 2160p] [SDR] 6xMVO + 5xAVO sheker187 Скачать
1 | 0
Ultra HD (UHD: 2K, 4K, 8K) — видео сверхвысокой чёткости [ 15.82 GB ] Парк Юрского периода 3 / Jurassic Park III [2001 UHD BDRip 2160p] DUB + MVO + 4xAVO sheker187 Скачать
1 | 0
Ultra HD (UHD: 2K, 4K, 8K) — видео сверхвысокой чёткости [ 115.13 GB ] Парк Юрского периода / Jurassic Park [1993 UHD BDRemux 2160p] DUB+5xMVO+8xAVO+2xDVO bober100 Скачать
1 | 0
Ultra HD (UHD: 2K, 4K, 8K) — видео сверхвысокой чёткости [ 57.57 GB ] Парк Юрского периода 3 / Jurassic Park III [2001 UHD BDRemux 2160p] DUB+4xAVO+DVO + MVO bober100 Скачать
1 | 0
Ultra HD (UHD: 2K, 4K, 8K) — видео сверхвысокой чёткости [ 99.71 GB ] Парк Юрского периода 2: Затерянный мир / The Lost World: Jurassic Park [1997 UHD BDRemux 2160p] 7xMVO+DUB+7xAVO+3xVO bober100 Скачать
1 | 0
Ultra HD (UHD: 2K, 4K, 8K) — видео сверхвысокой чёткости [ 56.67 GB ] Парк Юрского периода / Jurassic Park [1993 UHD Blu-Ray EUR 2160p] sheker187 Скачать
1 | 0
Ultra HD (UHD: 2K, 4K, 8K) — видео сверхвысокой чёткости [ 58.52 GB ] Парк Юрского периода 2: Затерянный мир / Lost World: Jurassic Park The [1997 UHD Blu-Ray EUR 2160p] sheker187 Скачать
1 | 0


>> Регистрируемся здесь <<






Отзывы и комментарии о схеме читаем и пишем здесь: ---> Отзывы и комментарии о схеме

Новые благодарочки в телеграм довольных пользователей:
скриншот   скриншот   скриншот   скриншот   скриншот
    Дорогой пользователь! Огромная просьба, поблагодарите релизера, оцените раздачу и оставьте свои комментарий, если Вы скачали Парк Юрского периода через торрент бесплатно! Внесите свою лепту в развитие PiratBit!
    Комментировать посты могут только пользователи прошедшие не сложную регистрацию
    Показать сообщения:    

    Парк Юрского периода через торрент
    Скачать бесплатно Парк Юрского периода
    Парк Юрского периода скачать торрент
    Парк Юрского периода смотреть онлайн
    Cкачать фильм Парк Юрского периода бесплатно
    Парк Юрского периода скачать торрент в хорошем качестве
    Парк Юрского периода смотреть онлайн бесплатно в хорошем качестве


    Вы не можете начинать темы
    Вы не можете отвечать на сообщения
    Вы не можете редактировать свои сообщения
    Вы не можете удалять свои сообщения
    Вы не можете голосовать в опросах
    Вы не можете прикреплять файлы к сообщениям
    Вы можете скачивать файлы