новый адрес
Ссылка на приватное зеркало всего за 1$. Внимание количество ограничено!!!

iTunes

1+1

iTunes

мы

WEB-DL

1

iTunes

Чернобыль

iTunes

Ральф против интернета

Лицензия

ПШазам

Лицензия

Оно 2

Лицензия

30
pack

Вам бонус

ВАЖНО

!!Акция!!

Alien_RageХит недели

RePack

Resident Evil 21

ИГРА 18+

pack

RePack

jed

!!Акция!!

Alien_Rage

RePack

fifa19

RePack

Assassins Creed: Odyssey

RePack

NEED FOR SPEED™ PAYBACK

3 сезон

9 сезон

Бесстыжие 9 сезон

Все сериалы

все сериалы на PB.wtf

RePack

FAR CRY 5
Ребята, катастрофически не хватает 1900р. для оплаты серверов за Октябрь (всвязи с блокировками трафик упал в 3 раза), 1-2р., выручайте.
  

Долгая счастливая жизнь (Борис Хлебников) [2013, Россия, драма, DVDRip] pb.wtf

Долгая счастливая жизнь через торрент pb.wtf

Размер: 1.37 GB | Добавлен: 6 лет 4 мес. назад | Торрент скачан:295 раз
Скачать  

07-08-2013 20:39 Долгая счастливая жизнь Скачать торрент  

Долгая счастливая жизнь


  • Год выпуска:2013
  • Страна:Россия
  • Жанр:драма
  • Продолжительность: 01:15:40
  • Перевод:Не требуется

  • Субтитры: Нет
    • Режиссер:Борис Хлебников

  • В ролях:Александр Яценко (Александр Сергеевич), Анна Котова (Аня), Владимир Коробейников (Володя), Сергей Наседкин (Серёга), Евгений Сытый (Женя), Глеб Пускепалис (Олежка), Инна Стерлигова (жена Жени), Александр Алябьев (Сашка), Сергей Пестриков (Серёжка), Павел Колесников (старший специалист Андрей), Денис Ятковский (начальник департамента Денис), Валерий Константинов (сотрудник полиции)
    • Описание:
      Молодой предприниматель Саша поставлен перед выбором: получив компенсацию, мирно расстаться с налаженным хозяйством и уехать в город с любимой девушкой или вступить в опасную борьбу с новыми владельцами, чтобы отстоять права живущих на его земле людей.

  • Рейтинг
    kinopoisk.ru: 6.478 (219)
    imdb.com: 6.20 (56)
    • Качество:DVDRip
    • Формат:AVI
    • Видео кодек: XviD
    • Аудио кодек: AC3
    • Видео: XviD, 720x384 (1.875), 2128 kbps, 25 fps, 0,308 bpp
    • Аудио: AC3 / 5.1 / 48 kHz / 448 kbps / 16 bit

    General
    Complete name : D:ТорентыDolgaja.schastlivaja.zhizn.2012.O.DVDRip.1400Mb.avi
    Format : AVI
    Format/Info : Audio Video Interleave
    File size : 1.37 GiB
    Duration : 1h 15mn
    Overall bit rate : 2 586 Kbps
    Writing application : VirtualDubMod 1.5.10.3 | www.virtualdub-fr.org || (build 2550/release)
    Writing library : VirtualDubMod build 2550/release

    Video
    ID : 0
    Format : MPEG-4 Visual
    Format profile : Advanced Simple@L5
    Format settings, BVOP : 2
    Format settings, QPel : No
    Format settings, GMC : No warppoints
    Format settings, Matrix : Custom
    Codec ID : XVID
    Codec ID/Hint : XviD
    Duration : 1h 15mn
    Bit rate : 2 128 Kbps
    Width : 720 pixels
    Height : 384 pixels
    Display aspect ratio : 1.875
    Frame rate : 25.000 fps
    Color space : YUV
    Chroma subsampling : 4:2:0
    Bit depth : 8 bits
    Scan type : Progressive
    Compression mode : Lossy
    Bits/(Pixel*Frame) : 0.308
    Stream size : 1.12 GiB (82%)
    Writing library : XviD 1.2.1 (UTC 2008-12-04)

    Audio
    ID : 1
    Format : AC-3
    Format/Info : Audio Coding 3
    Mode extension : CM (complete main)
    Codec ID : 2000
    Duration : 1h 15mn
    Bit rate mode : Constant
    Bit rate : 448 Kbps
    Channel(s) : 6 channels
    Channel positions : Front: L C R, Side: L R, LFE
    Sampling rate : 48.0 KHz
    Bit depth : 16 bits
    Compression mode : Lossy
    Stream size : 242 MiB (17%)
    Alignment : Split accross interleaves
    Interleave, duration : 40 ms (1.00 video frame)
    Interleave, preload duration : 500 ms


    © Оформление by Vetalpb.wtf



  • Скачать Долгая счастливая жизнь через торрент http://i6.imageban.ru/out/2013/08/08/870db2a758c896c121658275cca5469c.jpg Скачать фильм Долгая счастливая жизнь через торрент бесплантно в хорошем качестве Описание:Молодой предприниматель Саша поставлен перед выбором: получив компенсацию, мирно расстаться с налаженным хозяйством и уехать в ... 8.7 10 10
    Info! Золотая раздача, скачанное не засчитывается.
    Торрент: Зарегистрирован [2013-08-07 20:39] · скачан: 295 раз
    Статус: √ проверено
    Размер: 1.37 GB
    Как cкачать? Как скачать Долгая счастливая жизнь через торрент | qTorrent

    % Раздел Тема Автор DL S | L
    Отечественный Рэп, Хип-Хоп [ 133 MB ] Вася Обломов - Долгая и несчастливая жизнь 2017 / MP3 / 320 kbps / Рэп bober100 Скачать
    3 | 0
    Архив (Отечественный Рок) [ 245 MB ] Гражданская оборона - Долгая счастливая жизнь-2004 MP3 320 kbps Anonymous Скачать
    1 | 0

    28-11-2019 20:33  

    Отключить всю рекламу на сайте

    08-08-2013 20:24 Долгая счастливая жизнь Скачать торрент  

    слишком затянутpb.wtf



    11-08-2013 14:15 Долгая счастливая жизнь Скачать торрент  

    michaelhab писал(а):

    слишком затянут


    Продолжительность: 01:15:40pb.wtf



      Дорогой пользователь! Огромная просьба, поблагодарите релизера, оцените раздачу и оставьте свои комментарий, если Вы скачали Долгая счастливая жизнь через торрент бесплатно! Внесите свою лепту в развитие PiratBit!
      Комментировать посты могут только пользователи прошедшие не сложную регистрацию
      Показать сообщения:    

      Долгая счастливая жизнь через торрент
      Скачать бесплатно Долгая счастливая жизнь
      Долгая счастливая жизнь скачать торрент
      Долгая счастливая жизнь смотреть онлайн
      Cкачать фильм Долгая счастливая жизнь бесплатно
      Долгая счастливая жизнь скачать торрент в хорошем качестве
      Долгая счастливая жизнь смотреть онлайн бесплатно в хорошем качестве


      Вы не можете начинать темы
      Вы не можете отвечать на сообщения
      Вы не можете редактировать свои сообщения
      Вы не можете удалять свои сообщения
      Вы не можете голосовать в опросах
      Вы не можете прикреплять файлы к сообщениям
      Вы можете скачивать файлы