Лицензия

MVO

1

1 сезон

Лицензия

Лицензия

13

MVO

1 сезон

Deluxe Edition

pack

Рекомендуем

30

Repack

ВАЖНО

ВАЖНО

Ghostwire

RePack

jed

RePack

fifa19

RePack

RDR2

RePack

NEED FOR SPEED™ PAYBACK

RePack

Кинопоиск HD

 Острые козырьки 6 сезон

6 сезон

FAR CRY 6

RePack

Лицензия

MVO

1

1 сезон

1 сезон

Лицензия

  

Вокруг света за 80 дней / Around the world in eighty days / Серии: 1-16 из 16 (Лиф Грэм) [1972 г., мультфильм, комедия, приключения, DVDRip-AVC] 3x [DUB]

Вокруг света за 80 дней через торрент pb.wtf

Раздают: 1 [ 0 KB/s ]
Размер: 4.35 GB | Добавлен: 9 мес. назад | Торрент скачан:27 раз
Смотреть онлайн Вокруг света за 80 дней | Скачать   

08-08-2013 07:32 Вокруг света за 80 дней Скачать торрент  

Вокруг света за 80 дней (80 дней вокруг света) / Around the World in Eighty Days
Год выпуска: 1972
Страна: Австралия
Жанр: мультфильм, комедия, приключения
Сезон (количество): 1
Серии (количество): 1-16 (все серии)
Продолжительность: 16 x ~ 00:21:00
Озвучка (1): Профессиональная (дубляж) [По заказу Гостелерадио СССР, 1981 г.]
Озвучка (2): Профессиональная (дубляж) [«Селена Интернешенл» по заказу ОРТ, 1999г]
Озвучка (3): Профессиональная (дубляж) [Студия НОТА по заказу ТНТ, 2005 г.]

Режиссёр: Лейф Грэм / Leif Gram

Описание:
Эта удивительная история Жюль Верна рассказывает о замечательном путешествии вокруг света. Отважный Филеас Фогг и его слуга Паспарту отправляются в путешествие по всем континентам, посещая самые замечательные города мира, пересекая океаны, горы и пустыни. Мистер Фикс преследует их на всем пути: из Англии в Каир, затем Бомбей и Гонконг. Врядли австралийские аниматоры, работавшие сорок лет назад над сериалом по роману Жюля Верна, могли представить, что на другой стороне земного шара, в Советском Союзе, их труд - станет легендарным. Шестнадцатирийный мультсериал "Вокруг света за 80 дней", рассказывающая о приключениях лощеного джентльмена Филлеаса Фогга и его слуги Паспарту, была приобретена советским телевидением, неоднократно демонстрировалась с огромным успехом и стала воистину культовой. Несколько поколений поклонников мультика увлеченно "растаскали" его на цитаты, - фраза "У вас есть план, мистер Фикс?" и рифмованные поговорки Фогга стали легендарными.

rating

Качество: DVDRip-AVC
Формат: MKV
Видео кодек: H.264
Аудио кодек: АС3
Видео: H.264, 1000-1300 Кбит/с, [email protected], 25.000 fps
Аудио 1: Русский (Дубляж СССР 1978г) (АС3, 2 ch, 192 Кбит/с)
Аудио 2: Русский (Студия Нота 2005г) (АС3, 2 ch, 192 Кбит/с)
Аудио 3: Русский (Селена Интернешенл 1999г) (АС3, 2 ch, 192 Кбит/с)
Аудио 4: Английский (АС3, 2 ch, 192 Кбит/с)
N:Multserial80Days.LonerD80Days.01.DVDRip.DreamLair.mkv
General
Complete name : N:Multserial80Days.LonerD80Days.01.DVDRip.DreamLair.mkv
Format : Matroska
File size : 293 MiB
Duration : 21mn 43s
Overall bit rate : 1 888 Kbps
Encoded date : UTC 2010-10-12 22:00:10
Writing application : mkvmerge v4.3.0 ('Escape from the Island') built on Sep 28 2010 23:42:10
Writing library : libebml v1.0.0 + libmatroska v1.0.0
Video #1
ID : 1
Format : AVC
Format/Info : Advanced Video Codec
Format profile : [email protected]
Format settings, CABAC : Yes
Format settings, ReFrames : 5 frames
Muxing mode : Container [email protected]
Codec ID : V_MPEG4/ISO/AVC
Duration : 21mn 43s
Bit rate : 1 120 Kbps
Width : 704 pixels
Height : 576 pixels
Display aspect ratio : 4:3
Original display aspect ratio : 4:3
Frame rate : 25.000 fps
Standard : PAL
Color space : YUV
Chroma subsampling : 4:2:0
Bit depth : 8 bits
Scan type : Progressive
Bits/(Pixel*Frame) : 0.110
Stream size : 168 MiB (57%)
Writing library : x264 core 105 r1732 2b04482
Encoding settings : cabac=1 / ref=5 / deblock=1:0:0 / analyse=0x3:0x113 / me=umh / subme=9 / psy=1 / psy_rd=1.00:0.00 / mixed_ref=1 / me_range=16 / chroma_me=1 / trellis=1 / 8x8dct=1 / cqm=0 / deadzone=21,11 / fast_pskip=1 / chroma_qp_offset=-2 / threads=4 / sliced_threads=0 / nr=0 / decimate=1 / interlaced=0 / constrained_intra=0 / bframes=9 / b_pyramid=2 / b_adapt=2 / b_bias=0 / direct=3 / weightb=1 / open_gop=0 / weightp=2 / keyint=250 / keyint_min=25 / scenecut=40 / intra_refresh=0 / rc_lookahead=50 / rc=2pass / mbtree=1 / bitrate=1120 / ratetol=1.0 / qcomp=0.60 / qpmin=10 / qpmax=51 / qpstep=4 / cplxblur=20.0 / qblur=0.5 / ip_ratio=1.40 / aq=1:1.00
Language : English
Audio #2
ID : 2
Format : AC-3
Format/Info : Audio Coding 3
Mode extension : CM (complete main)
Muxing mode : Header stripping
Codec ID : A_AC3
Duration : 21mn 43s
Bit rate mode : Constant
Bit rate : 192 Kbps
Channel(s) : 2 channels
Channel positions : Front: L R
Sampling rate : 48.0 KHz
Bit depth : 16 bits
Stream size : 29.8 MiB (10%)
Title : Ãîñòåëåðàäèî ÑÑÑÐ
Language : Russian
Audio #3
ID : 3
Format : AC-3
Format/Info : Audio Coding 3
Mode extension : CM (complete main)
Muxing mode : Header stripping
Codec ID : A_AC3
Duration : 21mn 43s
Bit rate mode : Constant
Bit rate : 192 Kbps
Channel(s) : 2 channels
Channel positions : Front: L R
Sampling rate : 48.0 KHz
Bit depth : 16 bits
Stream size : 29.8 MiB (10%)
Title : Ñòóäèÿ ÍÎÒÀ
Language : Russian
Audio #4
ID : 4
Format : AC-3
Format/Info : Audio Coding 3
Mode extension : CM (complete main)
Muxing mode : Header stripping
Codec ID : A_AC3
Duration : 21mn 43s
Bit rate mode : Constant
Bit rate : 192 Kbps
Channel(s) : 2 channels
Channel positions : Front: L R
Sampling rate : 48.0 KHz
Bit depth : 16 bits
Stream size : 29.8 MiB (10%)
Title : Ñåëåíà Èíòåðíåøåíë
Language : Russian
Audio #5
ID : 5
Format : AC-3
Format/Info : Audio Coding 3
Mode extension : CM (complete main)
Muxing mode : Header stripping
Codec ID : A_AC3
Duration : 21mn 43s
Bit rate mode : Constant
Bit rate : 192 Kbps
Channel(s) : 2 channels
Channel positions : Front: L R
Sampling rate : 48.0 KHz
Bit depth : 16 bits
Stream size : 29.8 MiB (10%)
Language : English
Рип делался с реставрированного издания 2005-го года. Качество его оставляет желать лучшего - кислотные цвета, замыленность картинки и прочие огрехи. Фильтрации и очистки было применено минимум дабы не издеваться над картинкой.
Работа с аудио, сведение, синхронизация советсткого дубляжа и озвучки от Селены выполнены sasha20072007, за что ему низкий поклон.
Озвучка студии Нота и английская дорожка взяты с DVD без перекодирования.
В рипе имеются все три русские озвучки, рип видеодорожки выполнен с двухдискового издания от Нова-фильм. На 7,8,9,11,13 серии советского дубляжа нет, эти серии не транслировали в те далекие времена. На пятой серии советский дубляж частичный.
Не секрет, что некоторые люди утверждают, что якобы в мультсериале 18 серий, более того - что они видели "утерянные" всем миром первую и восемнадцатую серию в советской (!) озвучке.
Интересная закономерность.
Те, кто утверждает, что якобы "видели и помнят" - ничего кроме "эээ, ммм, сутки потерялись, Фогг увидел случайно дату в газете, он выиграл пари" сказать НЕ могут.
А потерянные сутки и выигранное пари было везде - и в оригинальной книге Жюля Верна, и в анимешных "Вилли Фогге" и "Коте в сапогах", и в оскароносной экранизации 56-го года, и в фильме 89-го года с Пирсом Броснаном, и в прочих экранизациях.
А вот толком эти "всепомнящие" ничего не могут таки рассказать.
Что было в первой серии? Как появился Паспарту в доме Фогга, откуда обезьянка, как было заключено пари, просил ли Фогг руки Белинды или пари было изначально, появлялась ли Белинда в данной серии, как появился и как вредил мистер Фикс, что делали герои, какая была поговорка, какие ключевые предметы... ???
Что было в якобы последней серии? Куда приехали герои и каким образом, где они встретились с дядей Белинды и признал ли тот поражение, появлялась ли сама Белинда, что предпринимал мистер Фикс и дядюшка Белинды чтоб навредить Фоггу, какие были поговорка и ключевые предметы?? В конце концов - какая была финальная сцена - Фогг победил и всё, или он женился на Белинде, или заключил новое пари, что случилось с Фиксом, какова судьба Паспарту?
НЮ-НЮ, расскажите давайте, что ж тут стесняться, если помните? Ведь весь мир знает 16 эпизодов, а вы целых 18!
Или все же в России много попугаев, которые любят повторять за другими любую фразу?
1.По заказу Гостелерадио СССР, 1981 г. - Леонид Каневский — Мистер Фикс, Александр Белявский — Лорд Мейз
2.«Селена Интернешенл» по заказу ОРТ, 1999 г. - Валентин Смирнитский — Фогг, Андрей Казанцев — Паспарту, Ирина Гришина — Белинда, Владимир Ферапонтов — Мистер Фикс
3.Студия НОТА по заказу ТНТ, 2005 г. - Дмитрий Филимонов — Мистер Фикс, Сергей Стиллавин — Паспарту, Геннадий Бачинский — Фогг, Маргарита Митрофанова — Белинда Мэйз
4.Оригинальная версия - Алистер Данкан, Росс Хиггинс, Макс Осбистон, Джанет Вальдо, Оуэн Вейнготт
скриншот  скриншот  скриншот  



Скачать Вокруг света за 80 дней через торрент http://i27.fastpic.ru/big/2012/0103/00/65467796ae266879aa2e1b7d3de67300.jpg Скачать, смотреть онлайн Вокруг света за 80 дней бесплантно в хорошем качестве Описание:Эта удивительная история Жюль Верна рассказывает о замечательном путешествии вокруг света. Отважный Филеас Фогг и его слуга ... 10 10 10
Торрент: Зарегистрирован [2021-12-14 12:33] · скачан: 27 раз
Статус: √ проверено
Размер: 4.35 GB
Как cкачать? Как скачать Вокруг света за 80 дней через торрент | UTorrent

% Раздел Тема Автор DL S | L
Мультсериалы [ 4.74 GB ] Вокруг света за 80 дней / Around the world in eighty days/16 серий из 16 | | DVDRip alexx Скачать
1 | 0



Последний раз редактировалось: killermax2013 (2020-05-17 17:09), всего редактировалось 2 раз(а)

28-11-2019 20:33  

Отключить вcю реклaмy на сайте

14-12-2021 12:35 Вокруг света за 80 дней Скачать торрент  






14-12-2021 13:44 Вокруг света за 80 дней Скачать торрент  

Вот оно-Детство!!!



    Дорогой пользователь! Огромная просьба, поблагодарите релизера, оцените раздачу и оставьте свои комментарий, если Вы скачали Вокруг света за 80 дней через торрент бесплатно!!
    Комментировать посты могут только пользователи прошедшие не сложную регистрацию
    Показать сообщения:    


    Вокруг света за 80 дней через торрент
    Скачать бесплатно Вокруг света за 80 дней
    Вокруг света за 80 дней скачать торрент
    Вокруг света за 80 дней смотреть онлайн
    Cкачать фильм Вокруг света за 80 дней бесплатно
    Вокруг света за 80 дней скачать торрент в хорошем качестве
    Вокруг света за 80 дней смотреть онлайн бесплатно в хорошем качестве
    Вы не можете начинать темы
    Вы не можете отвечать на сообщения
    Вы не можете редактировать свои сообщения
    Вы не можете удалять свои сообщения
    Вы не можете голосовать в опросах
    Вы не можете прикреплять файлы к сообщениям
    Вы можете скачивать файлы