1 сезон

1 сезон

iTunes

1

КиноПоиск HD

Кинопоиск HD

iTunes

13

1 сезон

RePack

30

Ultimate

ВАЖНО

ИГРА 18+

pack

RePack

MK11
pack

Легкие деньги

RePack

jed

RePack

fifa19

RePack

RDR2

RePack

NEED FOR SPEED™ PAYBACK

4 сезон

9 сезон

Бесстыжие 9 сезон

Все сериалы

все сериалы на PB.wtf

RePack

FAR CRY 5
  
Magnet ссылка

Читай по губам / Sur mes lèvres (Жак Одиар / Jacques Audiard) [2001, Франция, триллер, драма, криминал, BDRip, DVO] pb.wtf

Читай по губам через торрент pb.wtf

Размер: 2.17 GB | Добавлен: 7 лет 8 мес. назад | Торрент скачан:64 раза
Скачать  

09-08-2013 16:19 Читай по губам Скачать торрент  

Читай по губам / Sur mes lèvres Слоган: «She teaches him good manners. He teaches her bad ones.»
Год выпуска: 2001
Страна: Франция
Жанр: триллер, драма, мелодрама, криминал
Продолжительность: 01:59:01
Перевод: Профессиональный (двухголосый)
Режиссер: Жак Одиар / Jacques Audiard
В ролях: Венсан Кассель (Paul), Эммануэль Дево (Carla), Оливье Гурме (Marchand), Оливье Перье (Masson), Оливия Бонами (Annie), Бернар Алан (Morel), Селин Сами (Josie), Пьер Диот (Keller), Франсуа Лорике (Jean-François), Серж Бутлерофф (Mammouth), Дэвид Саракино (Richard Carambo), Кристоф Вандевельде (Louis Carambo)
Описание: 35-летняя Карла Бем - обычная секретарша в конторе по торговле недвижимостью. Вся ее жизнь - повседневная рутинная работа и одиночество дома. К тому же, Карла очень плохо слышит - она носит слуховой аппарат и умеет читать по губам.
Поэтому она с радостью принимает предложение получить себе в помощь стажера - 25-летнего Поля, недавно вышедшего из тюрьмы. Она научит его хорошим манерам, а он ее - плохим...

Рейтинг
kinopoisk.ru: 7.415 (1699)
imdb.com: 7.30 (7 800)
MPAA: R - Лицам до 17 лет обязательно присутствие взрослого
Бюджет: FRF 49 000 000
Сборы в США: $1 471 911
Сборы в мире: $5 393 526
Мировая премьера: 10 сентября 2001
  • Качество: BDRip
  • Формат: AVI
  • Видео кодек: XviD
  • Аудио кодек: AC3
  • Видео: XviD, 720x400 (16:9), 2152 kbps, 24 fps, 0,311 bpp
  • Аудио: AC3 / 5.1 / 48 kHz / 448 kbps / 16 bit
    Format : AVI
    Format/Info : Audio Video Interleave
    Format profile : OpenDML
    File size : 2.17 GiB
    Duration : 1h 59mn
    Overall bit rate : 2 612 Kbps
    Movie name : Sur mes levres
    Genre : Thriller, Drama, Crime
    Writing application : VirtualDubMod 1.5.10.3 | www.virtualdub-fr.org || (build 2550/release)
    Original source form/Name : Movie
    Comment : Rip ot kep

    Video
    ID : 0
    Format : MPEG-4 Visual
    Format profile : Advanced Simple@L5
    Format settings, BVOP : 1
    Format settings, QPel : No
    Format settings, GMC : No warppoints
    Format settings, Matrix : Default (MPEG)
    Codec ID : XVID
    Codec ID/Hint : XviD
    Duration : 1h 59mn
    Bit rate : 2 152 Kbps
    Width : 720 pixels
    Height : 400 pixels
    Display aspect ratio : 16:9
    Frame rate : 24.000 fps
    Color space : YUV
    Chroma subsampling : 4:2:0
    Bit depth : 8 bits
    Scan type : Progressive
    Compression mode : Lossy
    Bits/(Pixel*Frame) : 0.311
    Stream size : 1.79 GiB (82%)
    Writing library : XviD 73

    Audio
    ID : 1
    Format : AC-3
    Format/Info : Audio Coding 3
    Mode extension : CM (complete main)
    Codec ID : 2000
    Duration : 1h 58mn
    Bit rate mode : Constant
    Bit rate : 448 Kbps
    Channel(s) : 6 channels
    Channel positions : Front: L C R, Side: L R, LFE
    Sampling rate : 48.0 KHz
    Bit depth : 16 bits
    Compression mode : Lossy
    Stream size : 381 MiB (17%)
    Alignment : Split accross interleaves
    Interleave, duration : 42 ms (1.00 video frame)
    Interleave, preload duration : 500 ms
    Сэмпл / Трейлер pb.wtf



  • Скачать Читай по губам через торрент http://i2.imageban.ru/out/2013/08/09/ac54964442fdfe278f8ef187ccfb766d.png Скачать фильм Читай по губам через торрент бесплантно в хорошем качестве Описание: 35-летняя Карла Бем - обычная секретарша в конторе по торговле недвижимостью. Вся ее жизнь - повседневная рутинная работа и ... 10 10 3
    Info! Золотая раздача, скачанное не засчитывается.
    Торрент: Зарегистрирован [2013-08-09 16:19] · скачан: 64 раз
    Статус: √ проверено
    Размер: 2.17 GB
    Как cкачать? Как скачать Читай по губам через торрент | UTorrent

    28-11-2019 20:33  

    Отключить всю рекламу на сайте

    10-08-2013 04:16 Читай по губам Скачать торрент  

    кэп, благодарствую!!!pb.wtf



      Дорогой пользователь! Огромная просьба, поблагодарите релизера, оцените раздачу и оставьте свои комментарий, если Вы скачали Читай по губам через торрент бесплатно! Внесите свою лепту в развитие PiratBit!
      Комментировать посты могут только пользователи прошедшие не сложную регистрацию
      Показать сообщения:    

      Читай по губам через торрент
      Скачать бесплатно Читай по губам
      Читай по губам скачать торрент
      Читай по губам смотреть онлайн
      Cкачать фильм Читай по губам бесплатно
      Читай по губам скачать торрент в хорошем качестве
      Читай по губам смотреть онлайн бесплатно в хорошем качестве


      Вы не можете начинать темы
      Вы не можете отвечать на сообщения
      Вы не можете редактировать свои сообщения
      Вы не можете удалять свои сообщения
      Вы не можете голосовать в опросах
      Вы не можете прикреплять файлы к сообщениям
      Вы можете скачивать файлы