Мега распродажа FORZA HORIZON 4 ULTIMATE+ВСЕ DLC+ОНЛАЙН всего за 499р. 349 руб. (супер цена). Внимание количество ограничено!!!

Лицензия

30

iTunes

мы

iTunes

1

1 сезон

Чернобыль

1 сезон

Ральф против интернета

MVO

Покемон. Детектив Пикачу

8 сезон

Игра престолов

iTunes

1+1

ИГРА 18+

pack

ВАЖНО

!!Акция!!

Alien_RageХит недели

RePack

Resident Evil 21
pack

RePack

Metro:Exodus

!!Акция!!

Alien_Rage

RePack

fifa19

RePack

Assassins Creed: Odyssey

RePack

NEED FOR SPEED™ PAYBACK

3 сезон

9 сезон

Бесстыжие 9 сезон

Все сериалы

все сериалы на PB.wtf

RePack

FAR CRY 5
Ребята, катастрофически не хватает 2730р. для оплаты серверов за МАЙ (всвязи с блокировками трафик упал в 3 раза), 1-2р., выручайте.
  

Гробница дьявола / The Devil's Tomb (Джейсон Коннери) [2009, ужасы, фантастика, боевик, триллер, BDRip,DVO] pb.wtf

Гробница дьявола через торрент pb.wtf

Размер: 1.82 GB | Добавлен: 5 лет 10 мес. назад | Торрент скачан:140 раз
Скачать  

09-08-2013 18:55 Гробница дьявола Скачать торрент  


Гробница дьявола / The Devil's Tomb


«An evil entombed for 2000 years... until now.»

Год выпуска: 2009
Страна: США
Жанр: ужасы, фантастика, боевик, триллер
Продолжительность: 01:30:06
Перевод: Профессиональный (двухголосый закадровый)

Режиссер: Джейсон Коннери
Сценарий: Кейт Кджорнс
Продюсер: С.Б. Харрис, Билл Шейнберг, Джонатан Шейнберг, ...

Бюджет: $10 000 000
Премьера (мир): 26 мая 2009, ...
Рейтинг MPAA: Лицам до 17 лет обязательно присутствие взрослого

В ролях: Кьюба Гудинг мл. / Cuba Gooding Jr. (Mack), Тэрин Мэннинг / Taryn Manning (Doc), Валери Крус / Valerie Cruz (Dr. Elissa Cardell), Фрэнки Джи / Franky G (Hammer), Зак Уорд / Zack Ward (Nickels), Генри Роллинз / Henry Rollins (Fulton), Джейсон Лондон / Jason London (Hicks), Стефани Джейкобсен / Stephanie Jacobsen (Yoshi)


Описание: Команда наемников должна спасти ученого совершившего археологическое открытие в глубине одной пустыни. С помощью одного священника они скоро узнают истинную тайну, скрывающуюся в глубине песков. Тайна, которая была скрыта в течение тысяч лет, тайна иных миров…

Качество: BDRip
Формат: MKV
Видео кодек: AVC
Аудио кодек: AC3
Видео: 1024x576 (16:9), 23.976 fps, AVC, 2 000 Kbps
Аудио: Аудио #1: AC3, 448 Kbps, 48.0 KHz, 6 ch Русский
Аудио #2: AC3, 448 Kbps, 48.0 KHz, 6 ch английский

СЭМПЛ

Код:

General
Complete name                    : Grobnica.djavola.2009.mkv
Format                           : Matroska
File size                        : 1.82 GiB
Duration                         : 1h 30mn
Overall bit rate                 : 2 895 Kbps
Movie name                       : Grobnica.djavola.2009.x264.HDRip.(AVC).ExKinoRay
Encoded date                     : UTC 2012-08-15 16:28:14
Writing application              : mkvmerge v4.0.0 ('The Stars were mine') сборка от Jun  6 2010 16:18:42
Writing library                  : libebml v1.0.0 + libmatroska v1.0.0

Video
ID                               : 1
Format                           : AVC
Format/Info                      : Advanced Video Codec
Format profile                   : High@L4.1
Format settings, CABAC           : Yes
Format settings, ReFrames        : 8 frames
Format settings, GOP             : M=1, N=3
Muxing mode                      : Container profile=Unknown@4.1
Codec ID                         : V_MPEG4/ISO/AVC
Duration                         : 1h 30mn
Bit rate                         : 2 000 Kbps
Width                            : 1 024 pixels
Height                           : 576 pixels
Display aspect ratio             : 16:9
Frame rate                       : 23.976 fps
Color space                      : YUV
Chroma subsampling               : 4:2:0
Bit depth                        : 8 bits
Scan type                        : Progressive
Bits/(Pixel*Frame)               : 0.141
Stream size                      : 1.22 GiB (67%)
Title                            : Rip by Enigma-Vladislav71
Writing library                  : x264 core 116 r2074 2641b9e
Encoding settings                : cabac=1 / ref=8 / deblock=1:-2:-2 / analyse=0x3:0x133 / me=umh / subme=11 / psy=1 / psy_rd=1.00:0.00 / mixed_ref=1 / me_range=48 / chroma_me=1 / trellis=2 / 8x8dct=1 / cqm=0 / deadzone=21,11 / fast_pskip=0 / chroma_qp_offset=-2 / threads=3 / sliced_threads=0 / nr=0 / decimate=1 / interlaced=0 / bluray_compat=0 / constrained_intra=0 / bframes=8 / b_pyramid=2 / b_adapt=2 / b_bias=0 / direct=3 / weightb=1 / open_gop=0 / weightp=2 / keyint=240 / keyint_min=23 / scenecut=40 / intra_refresh=0 / rc=2pass / mbtree=0 / bitrate=2000 / ratetol=1.0 / qcomp=0.60 / qpmin=10 / qpmax=51 / qpstep=4 / cplxblur=20.0 / qblur=0.5 / ip_ratio=1.40 / pb_ratio=1.30 / aq=2:1.00

Audio #1
ID                               : 2
Format                           : AC-3
Format/Info                      : Audio Coding 3
Mode extension                   : CM (complete main)
Codec ID                         : A_AC3
Duration                         : 1h 30mn
Bit rate mode                    : Constant
Bit rate                         : 448 Kbps
Channel(s)                       : 6 channels
Channel positions                : Front: L C R, Side: L R, LFE
Sampling rate                    : 48.0 KHz
Bit depth                        : 16 bits
Stream size                      : 289 MiB (15%)
Language                         : Russian

Audio #2
ID                               : 3
Format                           : AC-3
Format/Info                      : Audio Coding 3
Mode extension                   : CM (complete main)
Codec ID                         : A_AC3
Duration                         : 1h 30mn
Bit rate mode                    : Constant
Bit rate                         : 448 Kbps
Channel(s)                       : 6 channels
Channel positions                : Front: L C R, Side: L R, LFE
Sampling rate                    : 48.0 KHz
Bit depth                        : 16 bits
Stream size                      : 289 MiB (15%)








pb.wtf



Скачать Гробница дьявола через торрент http://i33.fastpic.ru/big/2013/0809/d9/9898e7a6e49985f7bdc58bab302aaed9.jpg Скачать фильм Гробница дьявола через торрент бесплантно в хорошем качестве Описание: Команда наемников должна спасти ученого совершившего археологическое открытие в глубине одной пустыни. С помощью одного ... 8.5 10 15
Info! Золотая раздача, скачанное не засчитывается.
Торрент: Зарегистрирован [2013-08-09 18:55] · скачан: 140 раз
Статус: √ проверено
Размер: 1.82 GB
Как cкачать? Как скачать Гробница дьявола через торрент | qTorrent



Последний раз редактировалось: VintMosina (2013-08-09 19:09), всего редактировалось 1 раз


>> Регистрируемся здесь <<






Отзывы и комментарии о схеме читаем и пишем здесь: ---> Отзывы и комментарии о схеме

Новые благодарочки в телеграм довольных пользователей:
скриншот   скриншот   скриншот   скриншот   скриншот

09-08-2013 19:07 Гробница дьявола Скачать торрент  

выражение лица Кьюба Гудинга мл. на постере как бы говорит нам -зачем я снялся в этомpb.wtf



10-08-2013 04:43 Гробница дьявола Скачать торрент  

добавьте комментов по просмотру !!!!!!pb.wtf



    Дорогой пользователь! Огромная просьба, поблагодарите релизера, оцените раздачу и оставьте свои комментарий, если Вы скачали Гробница дьявола через торрент бесплатно! Внесите свою лепту в развитие PiratBit!
    Комментировать посты могут только пользователи прошедшие не сложную регистрацию
    Показать сообщения:    

    Гробница дьявола через торрент
    Скачать бесплатно Гробница дьявола
    Гробница дьявола скачать торрент
    Гробница дьявола смотреть онлайн
    Cкачать фильм Гробница дьявола бесплатно
    Гробница дьявола скачать торрент в хорошем качестве
    Гробница дьявола смотреть онлайн бесплатно в хорошем качестве


    Вы не можете начинать темы
    Вы не можете отвечать на сообщения
    Вы не можете редактировать свои сообщения
    Вы не можете удалять свои сообщения
    Вы не можете голосовать в опросах
    Вы не можете прикреплять файлы к сообщениям
    Вы можете скачивать файлы