Ссылка на приватное зеркало нашего сайта всего за 1$. Внимание количество ограничено!!!

2 сезон

iTunes

1 сезон

1

iTunes

iTunes

iTunes

1 сезон

RePack

30

ИГРА 18+

pack

ВАЖНО

!!Акция!!

Alien_RageХит недели

RePack

MK11
pack

Забери бонус

RePack

jed

!!Акция!!

Alien_Rage

RePack

fifa19

RePack

Assassins Creed: Odyssey

RePack

NEED FOR SPEED™ PAYBACK

4 сезон

9 сезон

Бесстыжие 9 сезон

Все сериалы

все сериалы на PB.wtf

RePack

FAR CRY 5
  

Король говорит! / The King's Speech (Том Xупер / Tom Нooper) [2010, США, Великобритания, Австралия, драма, биография, история, BDRip 720p] DUB Sub rus,eng + original eng pb.wtf

Король говорит! через торрент pb.wtf

Размер: 5.84 GB | Добавлен: 7 лет 2 мес. назад | Торрент скачан:195 раз
Скачать  

10-08-2013 14:05 Король говорит! Скачать торрент  

Король говорит! / The King's Speech

«It takes leadership to confront a nation's fear. It takes friendship to conquer your own.»

  • Год выпуска:2010
  • Страна:Великобритания, США, Австралия
  • Жанр:драма, биография, история
  • Продолжительность: 01:58:28
  • Перевод:Профессиональный (полное дублирование)|Лицензия|

  • Субтитры: русские, английские
    • Режиссер:Том Хупер / Tom Hooper

  • В ролях:Колин Фёрт (King George VI), Джеффри Раш (Lionel Logue), Хелена Бонем Картер (Queen Elizabeth), Гай Пирс (King Edward VIII), Тимоти Сполл (Winston Churchill), Энтони Эндрюс (Stanley Baldwin), Майкл Гэмбон (King George V), Клэр Блум (Queen Mary), Дерек Джекоби (Archbishop Cosmo Lang), Дженнифер Или (Myrtle Logue), Ив Бест (Wallis Simpson), Патрик Райкарт (Lord Wigram)
    • Описание:
      Сюжет ленты расскажет о герцоге, который готовится вступить в должность британского короля Георга VI, отца нынешней королевы Елизаветы II. После того, как его брат отрекается от престола, герой неохотно соглашается на трон. Измученный страшным нервным заиканием и сомнениями в своих способностях руководить страной, Георг обращается за помощью к неортодоксальному логопеду по имени Лайонел Лог.

  • Рейтинг
    MPAA: R - Лицам до 17 лет обязательно присутствие взрослого
    • Качество:BDRip 720p
    • Формат:MKV
    • Видео кодек: AVC
    • Аудио кодек: DTS /AC3
    • Видео: AVC, 1280x720 (16:9), 5095 kbps, 23,976 fps, 0,231 bpp
    • Аудио №1: русский / AC3 / 5.1 / 48 kHz / 448 kbps / 16 bit ||
    • Аудио №2: английский / DTS / 5.1 / 48 kHz / 1510 kbps / 24 bit

    General
    Unique ID : 214061253256172101551923044098626748028 (0xA10AB2A043353A99AC54D1492406FE7C)
    Complete name : D:ТорентыThe.Kings.Speech.2010.720p.BluRay.X264.mkv
    Format : Matroska
    Format version : Version 2
    File size : 5.84 GiB
    Duration : 1h 58mn
    Overall bit rate : 7 054 Kbps
    Encoded date : UTC 2011-04-02 10:15:22
    Writing application : mkvmerge v4.4.0 ('Die Wiederkehr') сборка от Oct 31 2010 21:52:48
    Writing library : libebml v1.0.0 + libmatroska v1.0.0

    Video
    ID : 1
    Format : AVC
    Format/Info : Advanced Video Codec
    Format profile : High@L4.1
    Format settings, CABAC : Yes
    Format settings, ReFrames : 5 frames
    Codec ID : V_MPEG4/ISO/AVC
    Duration : 1h 58mn
    Bit rate : 5 095 Kbps
    Width : 1 280 pixels
    Height : 720 pixels
    Display aspect ratio : 16:9
    Frame rate : 23.976 fps
    Color space : YUV
    Chroma subsampling : 4:2:0
    Bit depth : 8 bits
    Scan type : Progressive
    Bits/(Pixel*Frame) : 0.231
    Stream size : 4.10 GiB (70%)
    Writing library : x264 core 114 r1913 5fd3dce
    Encoding settings : cabac=1 / ref=5 / deblock=1:0:0 / analyse=0x3:0x113 / me=umh / subme=8 / psy=1 / psy_rd=1.00:0.00 / mixed_ref=1 / me_range=16 / chroma_me=1 / trellis=1 / 8x8dct=1 / cqm=0 / deadzone=21,11 / fast_pskip=1 / chroma_qp_offset=-2 / threads=12 / sliced_threads=0 / nr=0 / decimate=1 / interlaced=0 / constrained_intra=0 / bframes=3 / b_pyramid=2 / b_adapt=2 / b_bias=0 / direct=3 / weightb=1 / open_gop=0 / weightp=2 / keyint=240 / keyint_min=24 / scenecut=40 / intra_refresh=0 / rc_lookahead=50 / rc=2pass / mbtree=1 / bitrate=5095 / ratetol=1.0 / qcomp=0.60 / qpmin=0 / qpmax=69 / qpstep=4 / cplxblur=20.0 / qblur=0.5 / ip_ratio=1.40 / aq=1:1.00
    Language : English
    Default : Yes
    Forced : No

    Audio #1
    ID : 2
    Format : AC-3
    Format/Info : Audio Coding 3
    Mode extension : CM (complete main)
    Codec ID : A_AC3
    Duration : 1h 58mn
    Bit rate mode : Constant
    Bit rate : 448 Kbps
    Channel(s) : 6 channels
    Channel positions : Front: L C R, Side: L R, LFE
    Sampling rate : 48.0 KHz
    Bit depth : 16 bits
    Compression mode : Lossy
    Stream size : 380 MiB (6%)
    Title : R5
    Language : Russian
    Default : Yes
    Forced : No

    Audio #2
    ID : 3
    Format : DTS
    Format/Info : Digital Theater Systems
    Codec ID : A_DTS
    Duration : 1h 58mn
    Bit rate mode : Constant
    Bit rate : 1 510 Kbps
    Channel(s) : 6 channels
    Channel positions : Front: L C R, Side: L R, LFE
    Sampling rate : 48.0 KHz
    Bit depth : 24 bits
    Compression mode : Lossy
    Delay relative to video : 11ms
    Stream size : 1.25 GiB (21%)
    Language : English
    Default : No
    Forced : No

    Text #1
    ID : 4
    Format : UTF-8
    Codec ID : S_TEXT/UTF8
    Codec ID/Info : UTF-8 Plain Text
    Language : Russian
    Default : No
    Forced : No

    Text #2
    ID : 5
    Format : UTF-8
    Codec ID : S_TEXT/UTF8
    Codec ID/Info : UTF-8 Plain Text
    Language : English
    Default : No
    Forced : No

    Text #3
    ID : 6
    Format : UTF-8
    Codec ID : S_TEXT/UTF8
    Codec ID/Info : UTF-8 Plain Text
    Language : Spanish
    Default : No
    Forced : No

    Menu
    00:00:00.000 : en:00:00:00.000
    00:05:17.901 : en:00:05:17.901
    00:07:38.416 : en:00:07:38.416
    00:12:16.486 : en:00:12:16.486
    00:17:51.904 : en:00:17:51.904
    00:29:17.422 : en:00:29:17.422
    00:34:25.188 : en:00:34:25.188
    00:38:44.197 : en:00:38:44.197
    00:45:49.330 : en:00:45:49.330
    00:56:05.237 : en:00:56:05.237
    01:00:56.069 : en:01:00:56.069
    01:05:03.525 : en:01:05:03.525
    01:11:48.513 : en:01:11:48.513
    01:14:32.885 : en:01:14:32.885
    01:16:46.018 : en:01:16:46.018
    01:21:24.880 : en:01:21:24.880
    01:23:35.385 : en:01:23:35.385
    01:31:03.875 : en:01:31:03.875
    01:33:46.663 : en:01:33:46.663
    01:41:48.769 : en:01:41:48.769
    01:48:16.740 : en:01:48:16.740
    01:51:33.562 : en:01:51:33.562


    © Оформление by Vetalpb.wtf



  • Скачать Король говорит! через торрент http://i5.imageban.ru/out/2013/08/10/fa1e7d67df81f5e8b08b302f5628ed5c.png Скачать фильм Король говорит! через торрент бесплантно в хорошем качестве Описание:Сюжет ленты расскажет о герцоге, который готовится вступить в должность британского короля Георга VI, отца нынешней королевы ... 10 10 5
    Info! Золотая раздача, скачанное не засчитывается.
    Торрент: Зарегистрирован [2013-08-10 14:05] · скачан: 195 раз
    Статус: √ проверено
    Размер: 5.84 GB
    Как cкачать? Как скачать Король говорит! через торрент | qTorrent

    28-11-2019 20:33  

    Отключить всю рекламу на сайте

      Дорогой пользователь! Огромная просьба, поблагодарите релизера, оцените раздачу и оставьте свои комментарий, если Вы скачали Король говорит! через торрент бесплатно! Внесите свою лепту в развитие PiratBit!
      Комментировать посты могут только пользователи прошедшие не сложную регистрацию
      Показать сообщения:    

      Король говорит! через торрент
      Скачать бесплатно Король говорит!
      Король говорит! скачать торрент
      Король говорит! смотреть онлайн
      Cкачать фильм Король говорит! бесплатно
      Король говорит! скачать торрент в хорошем качестве
      Король говорит! смотреть онлайн бесплатно в хорошем качестве


      Вы не можете начинать темы
      Вы не можете отвечать на сообщения
      Вы не можете редактировать свои сообщения
      Вы не можете удалять свои сообщения
      Вы не можете голосовать в опросах
      Вы не можете прикреплять файлы к сообщениям
      Вы можете скачивать файлы