Ссылка на приватное зеркало нашего сайта всего за 1$. Внимание количество ограничено!!!

2 сезон

iTunes

1 сезон

1

iTunes

iTunes

iTunes

1 сезон

RePack

30

ИГРА 18+

pack

ВАЖНО

!!Акция!!

Alien_RageХит недели

RePack

MK11
pack

Забери бонус

RePack

jed

!!Акция!!

Alien_Rage

RePack

fifa19

RePack

Assassins Creed: Odyssey

RePack

NEED FOR SPEED™ PAYBACK

4 сезон

9 сезон

Бесстыжие 9 сезон

Все сериалы

все сериалы на PB.wtf

RePack

FAR CRY 5
  

Путь воина / The Warrior's Way (Снгму Ли / Sngmoo Lee) [2010, США, Корея Южная, Новая Зеландия, фэнтези, боевик, вестерн, BDRip 720p] DUB Sub rus + original eng pb.wtf

Путь воина через торрент pb.wtf

Размер: 4.63 GB | Добавлен: 7 лет 2 мес. назад | Торрент скачан:165 раз
Скачать  

10-08-2013 14:51 Путь воина Скачать торрент  

Путь воина / The Warrior's Way

«Assassin. Hero. Legend.»

  • Год выпуска:2010
  • Страна:США, Корея Южная, Новая Зеландия
  • Жанр:фэнтези, боевик, вестерн
  • Продолжительность: 01:40:15
  • Перевод:Профессиональный (полное дублирование)|Лицензия|

  • Субтитры: русские,английские
    • Режиссер:Снгму Ли / Sngmoo Lee

  • В ролях:Чан Дон Гун (Yang), Кейт Босворт (Lynne), Джеффри Раш (Ronald), Мэтт Джилландерс (Geyser), Дэнни Хьюстон (Colonel), Тони Кокс (Eight-Ball), Ланг Ти (Saddest Flute), Эналин Радд (Baby April), Маркус Хэмилтон (Baptiste), Род Люисих (Craig), Кристина Эшер (Esmerelda), Джед Брофи (Jacques)
    • Описание:
      Великий воин Янг - живая легенда, рожденная на поле боя. Он был так силен, что ни одна армия не могла его победить.
      Однажды, уничтожая врагов своего клана, самурай отказался убить маленькую девочку, за что его ждет смертный приговор. С младенцем на руках он бежит в Новый Свет, в Америку и находит убежище в захолустном городке, жители которого живут в постоянном страхе перед бандой безжалостного Полковника... Но и здесь прошлое преследует Янга. Он снова должен обнажить свой меч...

  • Рейтинг
    kinopoisk.ru: 6.233 (5635)
    imdb.com: 6.20 (17 026)
    MPAA: R - Лицам до 17 лет обязательно присутствие взрослого
    • Качество:BDRip 720p
    • Формат:MKV
    • Видео кодек:AVC
    • Аудио кодек: DTS /AC3
    • Видео: AVC, 1280x534 (2.40:1), 4721 kbps, 23,976 fps, 0,288 bpp
    • Аудио №1: русский / AC3 / 5.1 / 48 kHz / 384 kbps / 16 bit ||
    • Аудио №2: английский / DTS / 5.1 / 48 kHz / 1510 kbps / 24 bit

    Общее
    Уникальный идентификатор : 196267775263667126661052676008102488868 (0x93A7CC6DC36C2587B5C6135A3A166B24)
    Полное имя : D:ТорентыThe.Warrior's.Way.2010.Bluray.720p.DTS.x264-CHD.mkv
    Формат : Matroska
    Версия формата : Version 2
    Размер файла : 4,63 Гбайт
    Продолжительность : 1 ч. 40 м.
    Общий поток : 6619 Кбит/сек
    Название фильма : --Talian--
    Дата кодирования : UTC 2011-04-06 17:38:03
    Программа кодирования : mkvmerge v3.3.0 ('Language') сборка от May 14 2010 17:11:50
    Библиотека кодирования : libebml v0.8.0 + libmatroska v0.9.0

    Видео
    Идентификатор : 1
    Формат : AVC
    Формат/Информация : Advanced Video Codec
    Профиль формата : High@L4.1
    Параметр CABAC формата : Да
    Параметр ReFrames формата : 12 кадров
    Идентификатор кодека : V_MPEG4/ISO/AVC
    Продолжительность : 1 ч. 40 м.
    Битрейт : 4721 Кбит/сек
    Ширина : 1280 пикселей
    Высота : 534 пикселя
    Соотношение сторон : 2,40:1
    Режим частоты кадров : Постоянный
    Частота кадров : 23,976 кадра/сек
    Цветовое пространство : YUV
    Субдискретизация насыщенности : 4:2:0
    Битовая глубина : 8 бит
    Тип развёртки : Прогрессивная
    Бит/(Пиксели*Кадры) : 0.288
    Размер потока : 3,22 Гбайт (69%)
    Заголовок : The.Warrior's.Way.2010.Bluray.720p.DTS.x264-CHD
    Библиотека кодирования : x264 core 114 r1913 5fd3dce
    Настройки программы : cabac=1 / ref=12 / deblock=1:-3:-3 / analyse=0x3:0x113 / me=umh / subme=9 / psy=1 / psy_rd=1.10:0.15 / mixed_ref=1 / me_range=32 / chroma_me=1 / trellis=2 / 8x8dct=1 / cqm=2 / deadzone=21,11 / fast_pskip=0 / chroma_qp_offset=-2 / threads=12 / sliced_threads=0 / nr=0 / decimate=1 / interlaced=0 / constrained_intra=0 / bframes=6 / b_pyramid=2 / b_adapt=2 / b_bias=0 / direct=3 / weightb=1 / open_gop=0 / weightp=2 / keyint=250 / keyint_min=23 / scenecut=40 / intra_refresh=0 / rc_lookahead=60 / rc=2pass / mbtree=1 / bitrate=4721 / ratetol=1.0 / qcomp=0.60 / qpmin=1 / qpmax=63 / qpstep=4 / cplxblur=20.0 / qblur=0.5 / vbv_maxrate=40000 / vbv_bufsize=30000 / nal_hrd=none / ip_ratio=1.40 / aq=1:0.80
    Язык : English
    Default : Да
    Forced : Нет

    Аудио #1
    Идентификатор : 2
    Формат : AC-3
    Формат/Информация : Audio Coding 3
    Расширение режима : CM (complete main)
    Параметр Endianness формата : Big
    Идентификатор кодека : A_AC3
    Продолжительность : 1 ч. 40 м.
    Вид битрейта : Постоянный
    Битрейт : 384 Кбит/сек
    Каналы : 6 каналов
    Расположение каналов : Front: L C R, Side: L R, LFE
    Частота : 48,0 КГц
    Битовая глубина : 16 бит
    Метод сжатия : С потерями
    Размер потока : 275 Мбайт (6%)
    Заголовок : Дубляж
    Язык : Russian
    Default : Да
    Forced : Нет

    Аудио #2
    Идентификатор : 3
    Формат : DTS
    Формат/Информация : Digital Theater Systems
    Режим : 16
    Параметр Endianness формата : Big
    Идентификатор кодека : A_DTS
    Продолжительность : 1 ч. 40 м.
    Вид битрейта : Постоянный
    Битрейт : 1509 Кбит/сек
    Каналы : 6 каналов
    Расположение каналов : Front: L C R, Side: L R, LFE
    Частота : 48,0 КГц
    Битовая глубина : 24 бит
    Метод сжатия : С потерями
    Задержка видео : 11 мс.
    Размер потока : 1,06 Гбайт (23%)
    Заголовок : оригинал
    Язык : English
    Default : Нет
    Forced : Нет

    Текст #1
    Идентификатор : 4
    Формат : UTF-8
    Идентификатор кодека : S_TEXT/UTF8
    Идентификатор кодека/Информация : UTF-8 Plain Text
    Заголовок : Sub
    Язык : Russian
    Default : Да
    Forced : Нет

    Текст #2
    Идентификатор : 5
    Формат : UTF-8
    Идентификатор кодека : S_TEXT/UTF8
    Идентификатор кодека/Информация : UTF-8 Plain Text
    Заголовок : Sub
    Язык : English
    Default : Нет
    Forced : Нет

    Меню
    00:00:00.000 : en:00:00:00.000
    00:08:54.909 : en:00:08:54.909
    00:17:09.153 : en:00:17:09.153
    00:24:14.912 : en:00:24:14.912
    00:33:32.719 : en:00:33:32.719
    00:43:03.206 : en:00:43:03.206
    00:49:42.146 : en:00:49:42.146
    00:58:25.085 : en:00:58:25.085
    01:07:07.232 : en:01:07:07.232
    01:15:47.418 : en:01:15:47.418
    01:26:19.466 : en:01:26:19.466
    01:31:50.046 : en:01:31:50.046
    скриншот   скриншот   скриншот   скриншот  

    © Оформление by Vetalpb.wtf



  • Скачать Путь воина через торрент http://i6.imageban.ru/out/2013/08/10/f98ca35176010a318379b3edd395b79d.png Скачать фильм Путь воина через торрент бесплантно в хорошем качестве Описание:Великий воин Янг - живая легенда, рожденная на поле боя. Он был так силен, что ни одна армия не могла его победить.Однажды, ... 10 10 7
    Info! Золотая раздача, скачанное не засчитывается.
    Торрент: Зарегистрирован [2013-08-10 14:51] · скачан: 165 раз
    Статус: √ проверено
    Размер: 4.63 GB
    Как cкачать? Как скачать Путь воина через торрент | qTorrent

    28-11-2019 20:33  

    Отключить всю рекламу на сайте

      Дорогой пользователь! Огромная просьба, поблагодарите релизера, оцените раздачу и оставьте свои комментарий, если Вы скачали Путь воина через торрент бесплатно! Внесите свою лепту в развитие PiratBit!
      Комментировать посты могут только пользователи прошедшие не сложную регистрацию
      Показать сообщения:    

      Путь воина через торрент
      Скачать бесплатно Путь воина
      Путь воина скачать торрент
      Путь воина смотреть онлайн
      Cкачать фильм Путь воина бесплатно
      Путь воина скачать торрент в хорошем качестве
      Путь воина смотреть онлайн бесплатно в хорошем качестве


      Вы не можете начинать темы
      Вы не можете отвечать на сообщения
      Вы не можете редактировать свои сообщения
      Вы не можете удалять свои сообщения
      Вы не можете голосовать в опросах
      Вы не можете прикреплять файлы к сообщениям
      Вы можете скачивать файлы