Достать ножи: Стеклянная луковица

MVO

Добыча

Дубляж

Уэнсдэй

1 сезон

Тор

Дубляж

13 клиническая

1 сезон

Жестокая ночь

MVO

Одни из нас

1 сезон

Deluxe

pack

Рекомендуем

30

Пиратка

ВАЖНО

ВАЖНО

Ghostwire

Пиратка

jed

RePack

nioh2

RePack

RDR2

RePack

NEED FOR SPEED™ PAYBACK

RePack

скачать торрент

Кинопоиск HD

Острые козырьки 6 сезон

6 сезон

FAR CRY 6

RePack

скачать торрент

Лицензия

скачать торрент

MVO

1

1 сезон

скачать торрент

1 сезон

скачать торрент

Лицензия

  

Адреналин 2: Высокое напряжение / Crank 2: High Voltage (Марк Невелдайн / Mark Neveldine, Брайан Тейлор / Brian Taylor) [2009 г., Боевик, BDRip 720p] Дубляж

Адреналин 2: Высокое напряжение через торрент pb.wtf

Размер: 5.17 GB | Добавлен: 9 лет 5 мес. назад | Торрент скачан:187 раз
Смотреть онлайн | Скачать | Поддержите нас   

10-08-2013 15:49 Адреналин 2: Высокое напряжение Скачать торрент  

Адреналин: Высокое напряжение / Crank: High Voltage

«Он заряжен, чтобы вернуть свое сердце...»

  • Год выпуска:2009
  • Страна:США
  • Жанр:криминал, боевик, комедия
  • Продолжительность: 01:35:50
  • Перевод:Профессиональный (полное дублирование)|Лицензия|+ Авторский одноголосый (Дмитрий Пучков aka Гоблин)

  • Субтитры: Русские, английские
    • Режиссер:Марк Невелдайн / Mark Neveldine, Брайан Тейлор / Brian Taylor

  • В ролях:Джейсон Стэйтем (Chev Chelios), Эми Смарт (Eve), Дуайт Йоакам (Doc Miles), Бай Лин (Ria), Клифтон Коллинз мл. (El Huron), Эфрен Рамирез (Venus), Арт Хсю (Johnny Vang), Хосе Пабло Кантилльо (Ricky Verona), Джозеф Джулиан Сория (Chico), Дэвид Кэрредин (Poon Dong), Кион Янг (Don Kim), Джуланн Чиди Хилл (Dark Chocolate)
    • Описание:
      Он умер, но обещал вернуться! Не чудом, а благодаря современным медицинским технологиям Чев Челиос получает новое сердце и новый шанс отомстить своим врагам. Теперь для постоянной подзарядки ему требуется электрический разряд мощностью не меньше, чем у автомобильного аккумулятора.

  • Рейтинг
    kinopoisk.ru: 6.343 (47 702)
    imdb.com: 6.10 (71 275)
    MPAA: R - Лицам до 17 лет обязательно присутствие взрослого
    • Качество: BDRip 720p
    • Формат: H.264
    • Видео кодек: AVC
    • Аудио кодек: AC3, DTS
    • Видео: 1280x688, 5014 kbps, 23.976 fps
    • Аудио: Русский DTS 5.1, 48 KHz, 768 kbps профессиональный (полное дублирование)
    • Аудио #2: Русский AC3 5.1, 48 KHz, 448 kbps авторский одноголосый (Дмитрий Пучков aka Гоблин)
    • Аудио #3: Английский DTS 5.1, 48 KHz, 1536 kbps

    Общее
    Уникальный идентификатор : 194344154284713792791130058925709842829 (0x923552979341AC528ED3350BA0C9D98D)
    Полное имя : D:ТорентыCrank 2.High Voltage.2009.BD.Rip.720p.h264.2xRus.Eng.mkv
    Формат : Matroska
    Версия формата : Version 2
    Размер файла : 5,17 Гбайт
    Продолжительность : 1 ч. 35 м.
    Общий поток : 7728 Кбит/сек
    Дата кодирования : UTC 2009-08-25 08:20:52
    Программа кодирования : mkvmerge v2.9.7 ('Tenderness') built on Jul 1 2009 18:43:35
    Библиотека кодирования : libebml v0.7.7 + libmatroska v0.8.1

    Видео
    Идентификатор : 1
    Формат : AVC
    Формат/Информация : Advanced Video Codec
    Профиль формата : [email protected]
    Параметр CABAC формата : Да
    Параметр ReFrames формата : 5 кадров
    Идентификатор кодека : V_MPEG4/ISO/AVC
    Продолжительность : 1 ч. 35 м.
    Битрейт : 5014 Кбит/сек
    Ширина : 1280 пикселей
    Высота : 688 пикселей
    Соотношение сторон : 1,85:1
    Режим частоты кадров : Постоянный
    Частота кадров : 23,976 кадра/сек
    Цветовое пространство : YUV
    Субдискретизация насыщенности : 4:2:0
    Битовая глубина : 8 бит
    Тип развёртки : Прогрессивная
    Бит/(Пиксели*Кадры) : 0.237
    Размер потока : 3,26 Гбайт (63%)
    Библиотека кодирования : x264 core 72 r1217M 5e9ae4c
    Настройки программы : cabac=1 / ref=5 / deblock=1:0:0 / analyse=0x3:0x133 / me=umh / subme=7 / psy=1 / psy_rd=1.0:0.0 / mixed_ref=1 / me_range=16 / chroma_me=1 / trellis=1 / 8x8dct=1 / cqm=0 / deadzone=21,11 / chroma_qp_offset=-2 / threads=12 / nr=0 / decimate=1 / mbaff=0 / bframes=3 / b_pyramid=0 / b_adapt=1 / b_bias=0 / direct=1 / wpredb=1 / keyint=250 / keyint_min=25 / scenecut=40 / rc_lookahead=40 / rc=2pass / mbtree=1 / bitrate=5014 / ratetol=1.0 / qcomp=0.60 / qpmin=10 / qpmax=51 / qpstep=4 / cplxblur=20.0 / qblur=0.5 / ip_ratio=1.40 / aq=1:1.00
    Язык : English
    Default : Да
    Forced : Нет

    Аудио #1
    Идентификатор : 2
    Формат : DTS
    Формат/Информация : Digital Theater Systems
    Режим : 16
    Параметр Endianness формата : Big
    Идентификатор кодека : A_DTS
    Продолжительность : 1 ч. 35 м.
    Вид битрейта : Постоянный
    Битрейт : 755 Кбит/сек
    Каналы : 6 каналов
    Расположение каналов : Front: L C R, Side: L R, LFE
    Частота : 48,0 КГц
    Битовая глубина : 24 бит
    Метод сжатия : С потерями
    Размер потока : 517 Мбайт (10%)
    Заголовок : Dublyazh DTS 5.1 768 kbps
    Язык : Russian
    Default : Да
    Forced : Нет

    Аудио #2
    Идентификатор : 3
    Формат : AC-3
    Формат/Информация : Audio Coding 3
    Расширение режима : CM (complete main)
    Параметр Endianness формата : Big
    Идентификатор кодека : A_AC3
    Продолжительность : 1 ч. 35 м.
    Вид битрейта : Постоянный
    Битрейт : 448 Кбит/сек
    Каналы : 6 каналов
    Расположение каналов : Front: L C R, Side: L R, LFE
    Частота : 48,0 КГц
    Битовая глубина : 16 бит
    Метод сжатия : С потерями
    Размер потока : 307 Мбайт (6%)
    Заголовок : Goblin AC3 5.1 448 kbps
    Язык : Russian
    Default : Нет
    Forced : Нет

    Аудио #3
    Идентификатор : 4
    Формат : DTS
    Формат/Информация : Digital Theater Systems
    Режим : 16
    Параметр Endianness формата : Big
    Идентификатор кодека : A_DTS
    Продолжительность : 1 ч. 35 м.
    Вид битрейта : Постоянный
    Битрейт : 1509 Кбит/сек
    Каналы : 6 каналов
    Расположение каналов : Front: L C R, Side: L R, LFE
    Частота : 48,0 КГц
    Битовая глубина : 24 бит
    Метод сжатия : С потерями
    Размер потока : 1,01 Гбайт (20%)
    Заголовок : DTS 5.1 1536 kbps
    Язык : English
    Default : Нет
    Forced : Нет

    Текст #1
    Идентификатор : 5
    Формат : UTF-8
    Идентификатор кодека : S_TEXT/UTF8
    Идентификатор кодека/Информация : UTF-8 Plain Text
    Язык : Russian
    Default : Нет
    Forced : Нет

    Текст #2
    Идентификатор : 6
    Формат : UTF-8
    Идентификатор кодека : S_TEXT/UTF8
    Идентификатор кодека/Информация : UTF-8 Plain Text
    Язык : English
    Default : Нет
    Forced : Нет

    скриншот   скриншот   скриншот  
    © Оформление by Vetal



  • Скачать Адреналин 2: Высокое напряжение через торрент http://i5-imageban-ru.translate.goog/out/2013/08/10/8468a49e6ccb522ff0fce1370b1e69be.jpg Скачать, смотреть онлайн Адреналин 2: Высокое напряжение бесплантно в хорошем качестве Описание:Он умер, но обещал вернуться! Не чудом, а благодаря современным медицинским технологиям Чев Челиос получает новое сердце и новый ... 9.6 10 14
    Info! Золотая раздача, скачанное не засчитывается.
    Торрент: Зарегистрирован [2013-08-10 15:49] · скачан: 187 раз
    Статус: √ проверено
    Размер: 5.17 GB
    Как cкачать? Как скачать Адреналин 2: Высокое напряжение через торрент | UTorrent

    28-11-2019 20:33  


    Отключить вcю реклaмy на сайте, в т.ч. и в плеере онлайн просмотра!

      Дорогой пользователь! Огромная просьба, поблагодарите релизера, оцените раздачу и оставьте свои комментарий, если Вы скачали Адреналин 2: Высокое напряжение через торрент бесплатно!!
      Комментировать посты могут только пользователи прошедшие не сложную регистрацию
      Показать сообщения:    


      Адреналин 2: Высокое напряжение через торрент
      Скачать бесплатно Адреналин 2: Высокое напряжение
      Адреналин 2: Высокое напряжение скачать торрент
      Адреналин 2: Высокое напряжение смотреть онлайн
      Cкачать фильм Адреналин 2: Высокое напряжение бесплатно
      Адреналин 2: Высокое напряжение скачать торрент в хорошем качестве
      Адреналин 2: Высокое напряжение смотреть онлайн бесплатно в хорошем качестве
      Вы не можете начинать темы
      Вы не можете отвечать на сообщения
      Вы не можете редактировать свои сообщения
      Вы не можете удалять свои сообщения
      Вы не можете голосовать в опросах
      Вы не можете прикреплять файлы к сообщениям
      Вы можете скачивать файлы
      Адреналин 2: Высокое напряжение / Crank 2: High Voltage [2009 г., Боевик, BDRip 720p] Дубляж смотреть онлайн, скачать торрент picoco.icu