Всегда рабочее зеркало без VPN и Proxy просто перед .vidak.icu напиши любое слово или цифру, Пример http://78ui.vidak.icu

MVO

MVO

1 сезон

1

1 сезон

iTunes

1 сезон

13

1 сезон

Deluxe

pack

Рекомендуем

Repack

30

ВАЖНО

RePack

MK11

RePack

jed

RePack

fifa19

RePack

RDR2

RePack

NEED FOR SPEED™ PAYBACK

Кинопоиск HD

6 сезон

 Острые козырьки 6 сезон

Все сериалы

все сериалы на PB.wtf

RePack

FAR CRY 5
  
Magnet ссылка

На льду / On the Ice (Andrew Okpeaha MacLean) [2011, США, триллер, драма, DVDRip, VO ] [Александр Райдер] pb.wtf

На льду через торрент pb.wtf

Размер: 1.47 GB | Добавлен: 8 лет 11 мес. назад | Торрент скачан:69 раз
Смотреть онлайн На льду | Скачать    Ребята, помогите собрать деньги на оплату серверов!!!

10-08-2013 16:09 На льду Скачать торрент  

На льду / On the Ice


  • Год выпуска:2011
  • Страна:США
  • Жанр:триллер, драма
  • Продолжительность: 01:32:24
  • Перевод:Любительский (одноголосый) [Александр Райдер]

  • Субтитры: Нет
    • Режиссер:Andrew Okpeaha MacLean

  • В ролях:Frank Qutuq Irelan (Aivaaq), Адамина Керр (Michelle), Джон Миллер (James), Josiah Patkotak (Qalli), Rosabelle Kunnanna Rexford, Сьерра Джейд Сэмпсон (Uvlu), Тедди Кайл Смит (Egasak), Эллисон Уорден (Sigvaun)
    • Описание:
      На самом краю мира, в Бэрроу, самом северном городе на Аляске, двое подростков пытаются посреди заснеженной тундры замести следы убийства.

  • Рейтинг
    kinopoisk.ru: 6.250 (20)
    imdb.com: 6.00 (551)
    MPAA: R - Лицам до 17 лет обязательно присутствие взрослого
    • Качество:DVDRip
    • Формат:AVI
    • Видео кодек: XviD
    • Аудио кодек: MP3 /AC3
    • Видео: XviD, 704x288 (2.40:1), 1809 kbps, 25 fps, 0,357 bpp
    • Аудио №1: MP3 / 2.0 / 48 kHz / 192 kbps /Russian
    • Аудио №2: AC3 / 2.0 / 48 kHz / 256 kbps / 16 bit-English


    General
    Complete name : D:ТорентыNa.ldy.2011.L1.DVDRip.1400MB.avi
    Format : AVI
    Format/Info : Audio Video Interleave
    File size : 1.47 GiB
    Duration : 1h 32mn
    Overall bit rate : 2 272 Kbps
    Writing application : VirtualDubMod 1.5.10.2 (build 2540/release)
    Writing library : VirtualDubMod build 2540/release

    Video
    ID : 0
    Format : MPEG-4 Visual
    Format profile : Advanced [email protected]
    Format settings, BVOP : 1
    Format settings, QPel : No
    Format settings, GMC : No warppoints
    Format settings, Matrix : Default (MPEG)
    Codec ID : XVID
    Codec ID/Hint : XviD
    Duration : 1h 32mn
    Bit rate : 1 810 Kbps
    Width : 704 pixels
    Height : 288 pixels
    Display aspect ratio : 2.40:1
    Frame rate : 25.000 fps
    Color space : YUV
    Chroma subsampling : 4:2:0
    Bit depth : 8 bits
    Scan type : Progressive
    Compression mode : Lossy
    Bits/(Pixel*Frame) : 0.357
    Stream size : 1.17 GiB (80%)
    Writing library : XviD 1.2.1 (UTC 2008-12-04)

    Audio #1
    ID : 1
    Format : MPEG Audio
    Format version : Version 1
    Format profile : Layer 3
    Codec ID : 55
    Codec ID/Hint : MP3
    Duration : 1h 32mn
    Bit rate mode : Constant
    Bit rate : 192 Kbps
    Channel(s) : 2 channels
    Sampling rate : 48.0 KHz
    Compression mode : Lossy
    Delay relative to video : 96ms
    Stream size : 127 MiB (8%)
    Alignment : Aligned on interleaves
    Interleave, duration : 40 ms (1.00 video frame)
    Interleave, preload duration : 504 ms
    Writing library : LAME3.98
    Encoding settings : -m s -V 4 -q 0 -lowpass 18.6 -b 192

    Audio #2
    ID : 2
    Format : AC-3
    Format/Info : Audio Coding 3
    Mode extension : CM (complete main)
    Codec ID : 2000
    Duration : 1h 32mn
    Bit rate mode : Constant
    Bit rate : 256 Kbps
    Channel(s) : 2 channels
    Channel positions : Front: L R
    Sampling rate : 48.0 KHz
    Bit depth : 16 bits
    Compression mode : Lossy
    Stream size : 169 MiB (11%)
    Alignment : Split accross interleaves
    Interleave, duration : 40 ms (1.00 video frame)
    Interleave, preload duration : 500 ms

    скриншот   скриншот   скриншот  
    © Оформление by Vetalpb.wtf



  • Скачать На льду через торрент https://pic1.kartinco.top/images/23/upispclsjf.png Скачать, смотреть онлайн На льду бесплантно в хорошем качестве Описание:На самом краю мира, в Бэрроу, самом северном городе на Аляске, двое подростков пытаются посреди заснеженной тундры замести следы ... 10 10 1
    Info! Золотая раздача, скачанное не засчитывается.
    Торрент: Зарегистрирован [2013-08-10 16:09] · скачан: 69 раз
    Статус: √ проверено
    Размер: 1.47 GB
    Как cкачать? Как скачать На льду через торрент | UTorrent

    28-11-2019 20:33  

    Отключить вcю реклaмy на сайте

    10-08-2013 17:34 На льду Скачать торрент  

    задача-то, похоже, ваще нереальная - посреди тундры труп спрятать.
    или подростки "особенные", или тундра маленькаяpb.wtf



    10-08-2013 17:34 На льду Скачать торрент  

    задача-то, похоже, ваще нереальная - посреди тундры труп спрятать.
    или подростки "особенные", или тундра маленькаяpb.wtf



      Дорогой пользователь! Огромная просьба, поблагодарите релизера, оцените раздачу и оставьте свои комментарий, если Вы скачали На льду через торрент бесплатно!
      Комментировать посты могут только пользователи прошедшие не сложную регистрацию
      Показать сообщения:    

      На льду через торрент
      Скачать бесплатно На льду
      На льду скачать торрент
      На льду смотреть онлайн
      Cкачать фильм На льду бесплатно
      На льду скачать торрент в хорошем качестве
      На льду смотреть онлайн бесплатно в хорошем качестве


      Вы не можете начинать темы
      Вы не можете отвечать на сообщения
      Вы не можете редактировать свои сообщения
      Вы не можете удалять свои сообщения
      Вы не можете голосовать в опросах
      Вы не можете прикреплять файлы к сообщениям
      Вы можете скачивать файлы