1 сезон

1 сезон

iTunes

1

КиноПоиск HD

Кинопоиск HD

iTunes

13

1 сезон

RePack

30

Новинка

ВАЖНО

ИГРА 18+

pack

RePack

MK11
pack

Легкие деньги

RePack

jed

RePack

fifa19

RePack

RDR2

RePack

NEED FOR SPEED™ PAYBACK

4 сезон

9 сезон

Бесстыжие 9 сезон

Все сериалы

все сериалы на PB.wtf

RePack

FAR CRY 5
  
Magnet ссылка

30 дней ночи / 30 Days of Night (Дэвид Слэйд / David Slade) [ 2007 , США, Новая Зеландия , ужасы, триллер , HDRip, DUB ] pb.wtf

30 дней ночи через торрент pb.wtf

Размер: 1.46 GB | Добавлен: 7 лет 8 мес. назад | Торрент скачан:185 раз
Скачать  

10-08-2013 19:04 30 дней ночи Скачать торрент  

30 дней ночи / 30 Days of Night Слоган: «Какова цена увидеть рассвет?»
Год выпуска: 2007
Страна: США, Новая Зеландия
Жанр: ужасы, триллер
Продолжительность: 01:53:05
Перевод: Профессиональный (полное дублирование)
Режиссер: Дэвид Слэйд / David Slade
В ролях: Джош Хартнетт (Eben Oleson), Мелисса Джордж (Stella Oleson), Дэнни Хьюстон (Marlow), Бен Фостер (The Stranger), Марк Бун Джуниор (Beau Brower), Марк Рендалл (Jake Oleson), Эмбер Сейнсбури (Denise), Ману Беннетт (Billy Kitka), Меган Фрэнич (Iris), Джоэль Тобек (Doug Hertz), Элизабет Хоторн (Lucy Ikos), Нэтаниэл Лис (Carter Davies)
Описание: Каждый год на 30 дней маленький город Бэрроу на Аляске погружается во тьму. Арктическая ночь - вещь вполне нормальная для этих мест. Но вот однажды, шериф городка Олсон начинает подозревать, что на этот раз тридцатидневный сумрак не пройдет так гладко. Вампиры подготавливают кровавый рейд на Бэрроу...

Рейтинг
kinopoisk.ru: 6.803 (17 234)
imdb.com: 6.60 (95 887)
Бюджет: $30 000 000
Сборы в США: $39 568 996
Сборы в России: $2 135 249
Сборы в мире: $75 095 087
Мировая премьера: 16 октября 2007
  • Качество: HDRip
  • Формат: AVI
  • Видео кодек: XviD
  • Аудио кодек: AC3
  • Видео: XviD, 720x304 (2.35:1), 1388 kbps, 23,976 fps, 0,265 bpp
  • Аудио: AC3 / 5.1 / 48 kHz / 448 kbps / 16 bit
    Format : AVI
    Format/Info : Audio Video Interleave
    File size : 1.46 GiB
    Duration : 1h 53mn
    Overall bit rate : 1 845 Kbps
    Writing application : VirtualDubMod 1.5.10.3 | www.virtualdub-fr.org || (build 2550/release)
    Writing library : VirtualDubMod build 2550/release

    Video
    ID : 0
    Format : MPEG-4 Visual
    Format profile : Advanced Simple@L5
    Format settings, BVOP : 1
    Format settings, QPel : No
    Format settings, GMC : No warppoints
    Format settings, Matrix : Default (MPEG)
    Codec ID : XVID
    Codec ID/Hint : XviD
    Duration : 1h 53mn
    Bit rate : 1 388 Kbps
    Width : 720 pixels
    Height : 304 pixels
    Display aspect ratio : 2.35:1
    Frame rate : 23.976 fps
    Color space : YUV
    Chroma subsampling : 4:2:0
    Bit depth : 8 bits
    Scan type : Progressive
    Compression mode : Lossy
    Bits/(Pixel*Frame) : 0.265
    Stream size : 1.10 GiB (75%)
    Writing library : XviD 73

    Audio
    ID : 1
    Format : AC-3
    Format/Info : Audio Coding 3
    Mode extension : CM (complete main)
    Codec ID : 2000
    Duration : 1h 53mn
    Bit rate mode : Constant
    Bit rate : 448 Kbps
    Channel(s) : 6 channels
    Channel positions : Front: L C R, Side: L R, LFE
    Sampling rate : 48.0 KHz
    Bit depth : 16 bits
    Compression mode : Lossy
    Stream size : 362 MiB (24%)
    Alignment : Split accross interleaves
    Interleave, duration : 42 ms (1.00 video frame)
    Interleave, preload duration : 500 ms
    Сэмпл / Трейлер pb.wtf



  • Скачать 30 дней ночи через торрент http://i6.imageban.ru/out/2013/08/10/3fd0810b2a86deb416b0f1169edcde81.png Скачать фильм 30 дней ночи через торрент бесплантно в хорошем качестве Описание: Каждый год на 30 дней маленький город Бэрроу на Аляске погружается во тьму. Арктическая ночь - вещь вполне нормальная для этих ... 10 10 15
    Info! Золотая раздача, скачанное не засчитывается.
    Торрент: Зарегистрирован [2013-08-10 19:04] · скачан: 185 раз
    Статус: √ проверено
    Размер: 1.46 GB
    Как cкачать? Как скачать 30 дней ночи через торрент | UTorrent

    % Раздел Тема Автор DL S | L
    Фильмы (WEB-DL 720p, 1080p) [ 11.71 GB ] 30 дней ночи / 30 Days of Night [2007 WEB-DL 1080p ] DUB+MVO+3xAVO+DVO bober100 Скачать
    3 | 0
    Фильмы (Blu-ray, BD-Remux, HDDVD) [ 32.56 GB ] 30 дней ночи / 30 Days of Night [2007 BDRemux 1080p от NovaLan] DUB+MVO+AVO Ворон Скачать
    1 | 0
    Фильмы (Blu-ray, BD-Remux, HDDVD) [ 19.66 GB ] 30 дней ночи: Темные времена / 30 Days of Night: Dark Days [2010 BDRemux 1080p от NovaLan] Ворон Скачать
    1 | 0
    Фильмы (Blu-ray, BD-Remux, HDDVD) [ 32.18 GB ] 30 дней ночи / 30 Days of Night [2007 BD-Remux MVO] Pavlin Скачать
    1 | 0
    Фильмы 2010 [ 1.45 GB ] 30 дней ночи: Тёмные дни / 30 Days of Night: Dark Days [2010 BDRip лицензия] SD Скачать
    1 | 0
    Фильмы [HD 720p, 1080p] (Хороший звук DUB, MVO) [ 8.47 GB ] 30 дней ночи / 30 Days of Night [2007 ] SibFrost Скачать
    1 | 0

    28-11-2019 20:33  

    Отключить всю рекламу на сайте

    11-08-2013 05:53 30 дней ночи Скачать торрент  

    Ну и как фильмец? трешак?
    Кто смотрел.pb.wtf



    11-08-2013 06:33 30 дней ночи Скачать торрент  

    Хороший фильм, в районе среднячка с +. Не входит в категорию трэшаpb.wtf



      Дорогой пользователь! Огромная просьба, поблагодарите релизера, оцените раздачу и оставьте свои комментарий, если Вы скачали 30 дней ночи через торрент бесплатно! Внесите свою лепту в развитие PiratBit!
      Комментировать посты могут только пользователи прошедшие не сложную регистрацию
      Показать сообщения:    

      30 дней ночи через торрент
      Скачать бесплатно 30 дней ночи
      30 дней ночи скачать торрент
      30 дней ночи смотреть онлайн
      Cкачать фильм 30 дней ночи бесплатно
      30 дней ночи скачать торрент в хорошем качестве
      30 дней ночи смотреть онлайн бесплатно в хорошем качестве


      Вы не можете начинать темы
      Вы не можете отвечать на сообщения
      Вы не можете редактировать свои сообщения
      Вы не можете удалять свои сообщения
      Вы не можете голосовать в опросах
      Вы не можете прикреплять файлы к сообщениям
      Вы можете скачивать файлы