1 сезон

1 сезон

iTunes

1

КиноПоиск HD

Кинопоиск HD

iTunes

13

1 сезон

RePack

30

Новинка

ВАЖНО

ИГРА 18+

pack

RePack

MK11
pack

Легкие деньги

RePack

jed

RePack

fifa19

RePack

RDR2

RePack

NEED FOR SPEED™ PAYBACK

4 сезон

9 сезон

Бесстыжие 9 сезон

Все сериалы

все сериалы на PB.wtf

RePack

FAR CRY 5
  
Magnet ссылка

Пришельцы в Америке / Just Visiting (Жан-Мари Пуарэ / Jean-Marie Poire) [2001, США, Франция, комедия, DVDRip] DUB pb.wtf

Пришельцы в Америке через торрент pb.wtf

Размер: 1.46 GB | Добавлен: 7 лет 7 мес. назад | Торрент скачан:282 раза
Скачать  

11-08-2013 09:22 Пришельцы в Америке Скачать торрент  

Пришельцы в Америке / Just Visiting
Год выпуска: 2001
Страна: CША, Франция
Жанр: Комедия
Продолжительность: 01:24:26
Перевод: Профессиональный (полное дублирование)
Русские субтитры: нет

Режиссер: Жан-Мари Пуарэ / Jean-Marie Poire

В ролях: Жан Рено, Кристиан Клавье, Кристина Эпплгэйт, Мэттью Росс, Тэра Рид, Бриджитт Уилсон

Описание: Два чудака из средневековой Франции, виконт Тибо и его слуга Андре, покорившие зрителей всего мира в легендарных комедиях "Коридоры времени" и "Коридоры времени 2", снова на экране! На этот раз двум героям предстоит отправиться в современные Соединенные Штаты Америки, чтобы в результате спасти от смерти возлюбленную Тибо Розалинд. В Штатах благородный рыцарь и его слуга попадают в такое количество сумасбродных и безумно смешных ситуаций, что их хватило бы на целую дюжину комедий...



Качество: DVDRip
Формат: AVI
Видео кодек: XviD
Аудио кодек: AC3
Видео: 720x304 (2.37:1), 25 fps, XviD build 50 ~2018 kbps avg, 0.37 bit/pixel
Аудио: 48 kHz, AC3 Dolby Digital, 3/2 (L,C,R,l,r) + LFE ch, ~448 kbps
Раздача от:
D:Мои рипыJUST_VISITING_DVDRip.1.45gb.by_dexter_lex.avi
General
Complete name : D:Мои рипыJUST_VISITING_DVDRip.1.45gb.by_dexter_lex.avi
Format : AVI
Format/Info : Audio Video Interleave
File size : 1.46 GiB
Duration : 1h 24mn
Overall bit rate : 2 476 Kbps
Writing application : VirtualDubMod 1.5.10.3 | www.virtualdub-fr.org || (build 2550/release)
Writing library : VirtualDubMod build 2550/release
Video #0
ID : 0
Format : MPEG-4 Visual
Format profile : Advanced Simple@L5
Format settings, BVOP : 1
Format settings, QPel : No
Format settings, GMC : No warppoints
Format settings, Matrix : Custom
Codec ID : XVID
Codec ID/Hint : XviD
Duration : 1h 24mn
Bit rate : 2 019 Kbps
Width : 720 pixels
Height : 304 pixels
Display aspect ratio : 2.35:1
Frame rate : 25.000 fps
Color space : YUV
Chroma subsampling : 4:2:0
Bit depth : 8 bits
Scan type : Progressive
Compression mode : Lossy
Bits/(Pixel*Frame) : 0.369
Stream size : 1.19 GiB (82%)
Writing library : XviD 1.2.1 (UTC 2008-12-04)
Audio #1
ID : 1
Format : AC-3
Format/Info : Audio Coding 3
Mode extension : CM (complete main)
Codec ID : 2000
Duration : 1h 24mn
Bit rate mode : Constant
Bit rate : 448 Kbps
Channel(s) : 6 channels
Channel positions : Front: L C R, Side: L R, LFE
Sampling rate : 48.0 KHz
Bit depth : 16 bits
Compression mode : Lossy
Stream size : 270 MiB (18%)
Alignment : Split accross interleaves
Interleave, duration : 40 ms (1.00 video frame)
Interleave, preload duration : 500 ms
pb.wtf



Скачать Пришельцы в Америке через торрент http://i33.fastpic.ru/big/2013/0811/d2/410046ad40a985fa7c4ec0fafed524d2.jpg Скачать фильм Пришельцы в Америке через торрент бесплантно в хорошем качестве Описание: Два чудака из средневековой Франции, виконт Тибо и его слуга Андре, покорившие зрителей всего мира в легендарных комедиях ... 9.8 10 12
Info! Золотая раздача, скачанное не засчитывается.
Торрент: Зарегистрирован [2013-08-11 09:22] · скачан: 282 раз
Статус: √ проверено
Размер: 1.46 GB
Как cкачать? Как скачать Пришельцы в Америке через торрент | UTorrent

% Раздел Тема Автор DL S | L
Фильмы 2001-2005 [ 744 MB ] Пришельцы в Америке / Just Visiting [2001 DVDRip] DUB dexter lex Скачать
1 | 0

28-11-2019 20:33  

Отключить всю рекламу на сайте

    Дорогой пользователь! Огромная просьба, поблагодарите релизера, оцените раздачу и оставьте свои комментарий, если Вы скачали Пришельцы в Америке через торрент бесплатно! Внесите свою лепту в развитие PiratBit!
    Комментировать посты могут только пользователи прошедшие не сложную регистрацию
    Показать сообщения:    

    Пришельцы в Америке через торрент
    Скачать бесплатно Пришельцы в Америке
    Пришельцы в Америке скачать торрент
    Пришельцы в Америке смотреть онлайн
    Cкачать фильм Пришельцы в Америке бесплатно
    Пришельцы в Америке скачать торрент в хорошем качестве
    Пришельцы в Америке смотреть онлайн бесплатно в хорошем качестве


    Вы не можете начинать темы
    Вы не можете отвечать на сообщения
    Вы не можете редактировать свои сообщения
    Вы не можете удалять свои сообщения
    Вы не можете голосовать в опросах
    Вы не можете прикреплять файлы к сообщениям
    Вы можете скачивать файлы