Всегда рабочее зеркало просто перед .vidak.icu напиши любое слово или цифру, Пример http://lh8.vidak.icu

>

7.4

iTunes

7.4

2 сезон

9.4

1 сезон

1

7.4

2 сезон

7.2

iTunes

6.0

MVO

13

6.1

iTunes

8.3

Пиратка

30

ULTIMATE

pack

9.9

Лицензия

ВАЖНО

ИГРА 18+

pack

7.3

RePack

MK11

7.7

RePack

jed

7.8

RePack

fifa19

8.5

RePack

RDR2

RePack

NEED FOR SPEED™ PAYBACK

1 сезон

9 сезон

Бесстыжие 9 сезон

Все сериалы

все сериалы на PB.wtf

RePack

FAR CRY 5

Anonymous, доброй ночи, мы катастрофически не успеваем собрать деньги на оплату серверов, помогите нам пожалуйста 5,10,15р., для нас важна любая помощь . В качестве благодарности мы отключим Вам всю рекламу на сайте (укажите свой ник в строку Ваше имя)!

×
  
Magnet ссылка

Древо жизни / The Tree of Life (Терренс Малик / Terrence Malick) [2010, США, драма, BDRip] AVO Сербин pb.wtf

Древо жизни через торрент pb.wtf

Размер: 2.18 GB | Добавлен: 8 лет 5 мес. назад | Торрент скачан:82 раза
Смотреть онлайн Древо жизни | Скачать    Ребята, помогите собрать деньги на оплату серверов!!!

11-08-2013 11:41 Древо жизни Скачать торрент  

Древо жизни / The Tree of Life

«Our picture is a cosmic epic, a hymn to life»

  • Год выпуска:2010
  • Страна:США
  • Жанр:фэнтези, драма
  • Продолжительность: 02:18:54
  • Перевод:Авторский (одноголосый) - Юрий Сербин

  • Субтитры: Нет
    • Режиссер:Терренс Малик / Terrence Malick

  • В ролях:Брэд Питт (Mr. O'Brien), Шон Пенн (Jack), Джессика Честейн (Mrs. O'Brien), Хантер МакКракен (Young Jack), Ларами Эпплер (R.L.), Тай Шеридан (Steve), Фиона Шоу (Grandmother), Джессика Фусельер (Guide), Николас Гонда (Mr. Reynolds), Уилл Уоллес (Architect), Келли Кунс (Father Haynes), Брайс Будоен (Robert)
    • Описание:
      Мы наблюдаем за развитием 11-летнего Джека, одного из трех братьев. Поначалу ребенку все кажется чудесным. Глазами своей души он наблюдает за поступками мамы. Она представляет собой любовь и милосердие, в то время как отец пытается научить сына, что в реальном мире на первое место необходимо всегда ставить себя. Каждый родитель старается переманить Джека на свою сторону, и он должен примириться с их притязаниями. Действительность становится мрачнее, когда главному герою в первый раз приходится столкнуться с болью, страданиями и смертью. Некогда абсолютно ясный мир превращается в лабиринт.

  • Рейтинг
    kinopoisk.ru: 6.707 (24 545)
    imdb.com: 6.80 (96 639)
    MPAA: PG-13 - Детям до 13 лет просмотр не желателен
    • Качество:BDRip
    • Формат:AVI
    • Видео кодек: XviD
    • Аудио кодек: AC3
    • Видео: XviD, 704x384 (16:9), 1847 kbps, 23,976 fps, 0,285 bpp
    • Аудио: AC3 / 5.1 / 48 kHz / 384 kbps / 16 bit

    General
    Complete name : D:ТорентыДрево жизни_2.18.avi
    Format : AVI
    Format/Info : Audio Video Interleave
    Format profile : OpenDML
    File size : 2.18 GiB
    Duration : 2h 18mn
    Overall bit rate : 2 243 Kbps
    Writing application : VirtualDubMod 1.5.10.3 | www.virtualdub-fr.org || (build 2550/release)
    Writing library : VirtualDubMod build 2550/release

    Video
    ID : 0
    Format : MPEG-4 Visual
    Format profile : Advanced Simple@L5
    Format settings, BVOP : 1
    Format settings, QPel : No
    Format settings, GMC : No warppoints
    Format settings, Matrix : Custom
    Codec ID : XVID
    Codec ID/Hint : XviD
    Duration : 2h 18mn
    Bit rate : 1 847 Kbps
    Width : 704 pixels
    Height : 384 pixels
    Display aspect ratio : 16:9
    Frame rate : 23.976 fps
    Color space : YUV
    Chroma subsampling : 4:2:0
    Bit depth : 8 bits
    Scan type : Progressive
    Compression mode : Lossy
    Bits/(Pixel*Frame) : 0.285
    Stream size : 1.79 GiB (82%)
    Writing library : XviD 64

    Audio
    ID : 1
    Format : AC-3
    Format/Info : Audio Coding 3
    Mode extension : CM (complete main)
    Codec ID : 2000
    Duration : 2h 18mn
    Bit rate mode : Constant
    Bit rate : 384 Kbps
    Channel(s) : 6 channels
    Channel positions : Front: L C R, Side: L R, LFE
    Sampling rate : 48.0 KHz
    Bit depth : 16 bits
    Compression mode : Lossy
    Stream size : 382 MiB (17%)
    Alignment : Split accross interleaves
    Interleave, duration : 42 ms (1.00 video frame)
    Interleave, preload duration : 500 ms


    © Оформление by Vetalpb.wtf



  • Скачать Древо жизни через торрент http://i5.imageban.ru/out/2013/08/11/a9127c56396cec5baa325e770b408b9b.jpg Скачать, смотреть онлайн Древо жизни бесплантно в хорошем качестве Описание:Мы наблюдаем за развитием 11-летнего Джека, одного из трех братьев. Поначалу ребенку все кажется чудесным. Глазами своей души он ... 10 10 3
    Info! Золотая раздача, скачанное не засчитывается.
    Торрент: Зарегистрирован [2013-08-11 11:41] · скачан: 82 раз
    Статус: √ проверено
    Размер: 2.18 GB
    Как cкачать? Как скачать Древо жизни через торрент | UTorrent

    28-11-2019 20:33  

    Отключить всю рекламу на сайте

      Дорогой пользователь! Огромная просьба, поблагодарите релизера, оцените раздачу и оставьте свои комментарий, если Вы скачали Древо жизни через торрент бесплатно!
      Комментировать посты могут только пользователи прошедшие не сложную регистрацию
      Показать сообщения:    

      Древо жизни через торрент
      Скачать бесплатно Древо жизни
      Древо жизни скачать торрент
      Древо жизни смотреть онлайн
      Cкачать фильм Древо жизни бесплатно
      Древо жизни скачать торрент в хорошем качестве
      Древо жизни смотреть онлайн бесплатно в хорошем качестве


      Вы не можете начинать темы
      Вы не можете отвечать на сообщения
      Вы не можете редактировать свои сообщения
      Вы не можете удалять свои сообщения
      Вы не можете голосовать в опросах
      Вы не можете прикреплять файлы к сообщениям
      Вы можете скачивать файлы