Ссылка на приватное зеркало всего за 1$. Внимание количество ограничено!!!

iTunes

iTunes

iTunes

1

iTunes

iTunes

iTunes

iTunes

iTunes

30
pack

$ от Little Big

ВАЖНО

!!Акция!!

Alien_RageХит недели

RePack

Resident Evil 21

ИГРА 18+

pack

RePack

jed

!!Акция!!

Alien_Rage

RePack

fifa19

RePack

Assassins Creed: Odyssey

RePack

NEED FOR SPEED™ PAYBACK

4 сезон

9 сезон

Бесстыжие 9 сезон

Все сериалы

все сериалы на PB.wtf

RePack

FAR CRY 5
  

Акулий торнадо / Sharknado (Энтони Ферранте / Anthony C. Ferrante) [2013, США, Ужасы, Фантастика, Пародия, HDTV 1080i] MVO (BaibaKo) + Original Eng pb.wtf

Акулий торнадо через торрент pb.wtf

Размер: 7.43 GB | Добавлен: 6 лет 11 мес. назад | Торрент скачан:57 раз
Скачать  

11-08-2013 12:50 Акулий торнадо Скачать торрент  


Акулий торнадо / Sharknado

«Enough said!»

  • Год выпуска:2013
  • Страна:США
  • Жанр:ужасы, фантастика
  • Продолжительность: 01:25:57
  • Перевод:Профессиональный (многоголосый, закадровый) BaibaKo

  • Субтитры: Нет
    • Режиссер:Энтони Ферранте / Anthony C. Ferrante

  • В ролях:Тара Рид (April Wexler), Йен Зиринг (Fin Shepard), Джон Хёрд (George), Кэсси Сербо (Nova Clarke), Джэйсон Симмонз (Baz Hogan), Алекс Арлио (Bobby), Нил Х. Берков (Carl Hubert), Хезер Жослин Блэр (Candice), Сумико Браун (Deanna), Дайан Чэмберс (Agnes), Джули МакКалло (Joni Waves), Маркус Чои (Palmer)
    • Описание:
      Из-за ужасного урагана Лос-Анджелес оказывается затопленным. Тысячи акул терроризируют городских жителей. Но когда на Лос-Анджелес обрушивается торнадо, ужасные морские хищники поднимаются в воздух...

  • Рейтинг
    kinopoisk.ru: 3.833 (37)
    imdb.com: 3.80 (4 681)
    • Качество:HDTV
    • Формат:MPEG-TS
    • Видео кодек: MPEG-2 Video
    • Аудио кодек: AC3
    • Видео: 1920x1080 (16:9), 11,0 Мбит/сек, 29,970 fps,
    • Аудио №1: русский / AC3 / 5.1 / 48 kHz / 384 kbps / 16 bit ||
      Аудио №2: английский / AC3 / 5.1 / 48 kHz / 384 kbps / 16 bit


    General
    ID : 1 (0x1)
    Complete name : D:ТоррентSharknado.2013.HDTV1080i.Rus.Eng.ts
    Format : MPEG-TS
    File size : 7.43 GiB
    Duration : 1h 25mn
    Overall bit rate : 12.4 Mbps
    Maximum Overall bit rate : 35.5 Mbps
    Video
    ID : 4113 (0x1011)
    Menu ID : 1 (0x1)
    Format : MPEG Video
    Format version : Version 2
    Format profile : Main@High
    Format settings, BVOP : Yes
    Format settings, Matrix : Default
    Codec ID : 2
    Duration : 1h 25mn
    Bit rate mode : Variable
    Bit rate : 11.0 Mbps
    Nominal bit rate : 24.0 Mbps
    Width : 1 920 pixels
    Height : 1 080 pixels
    Display aspect ratio : 16:9
    Frame rate : 29.970 fps
    Color space : YUV
    Chroma subsampling : 4:2:0
    Bit depth : 8 bits
    Compression mode : Lossy
    Bits/(Pixel*Frame) : 0.177
    Stream size : 6.60 GiB (89%)
    Audio #1
    ID : 4352 (0x1100)
    Menu ID : 1 (0x1)
    Format : AC-3
    Format/Info : Audio Coding 3
    Mode extension : CM (complete main)
    Codec ID : 129
    Duration : 1h 25mn
    Bit rate mode : Constant
    Bit rate : 384 Kbps
    Channel(s) : 6 channels
    Channel positions : Front: L C R, Side: L R, LFE
    Sampling rate : 48.0 KHz
    Bit depth : 16 bits
    Compression mode : Lossy
    Stream size : 236 MiB (3%)
    Language : Russian
    Audio #2
    ID : 4353 (0x1101)
    Menu ID : 1 (0x1)
    Format : AC-3
    Format/Info : Audio Coding 3
    Mode extension : CM (complete main)
    Codec ID : 129
    Duration : 1h 25mn
    Bit rate mode : Constant
    Bit rate : 384 Kbps
    Channel(s) : 6 channels
    Channel positions : Front: L C R, Side: L R, LFE
    Sampling rate : 48.0 KHz
    Bit depth : 16 bits
    Compression mode : Lossy
    Stream size : 236 MiB (3%)
    Language : English


    © Оформление by Vetalpb.wtf



  • Скачать Акулий торнадо через торрент http://pic.kartinco.top/images/3/zksxgedetg.jpg Скачать фильм Акулий торнадо через торрент бесплантно в хорошем качестве Описание:Из-за ужасного урагана Лос-Анджелес оказывается затопленным. Тысячи акул терроризируют городских жителей. Но когда на Лос-Анджелес ... 7.5 10 11
    Info! Золотая раздача, скачанное не засчитывается.
    Торрент: Зарегистрирован [2013-08-11 12:50] · скачан: 57 раз
    Статус: √ проверено
    Размер: 7.43 GB
    Как cкачать? Как скачать Акулий торнадо через торрент | qTorrent

    % Раздел Тема Автор DL S | L
    Фильмы (WEB-DL 720p, 1080p) [ 3.49 GB ] Акулий торнадо / Sharknado [ 2013 HDTVRip ]MVO + Original Eng -=Cherry=- Скачать
    1 | 0

    28-11-2019 20:33  

    Отключить всю рекламу на сайте

    11-08-2013 13:39 Акулий торнадо Скачать торрент  

    я думал это имя/фамилия: Акулий Торнадо...pb.wtf



    11-08-2013 13:48 Акулий торнадо Скачать торрент  

    vodorod писал(а):

    я думал это имя/фамилия: Акулий Торнадо...

    ))) класс!pb.wtf



    11-08-2013 14:08 Акулий торнадо Скачать торрент  

    ....я в ах...ах...захвате просто ...акула в пике как мессер... :omg: :cansored: pb.wtf



    11-08-2013 16:39 Акулий торнадо Скачать торрент  

    отдышаться от смеха минут пять не мог - пикирующая акула это круто!)pb.wtf



    11-08-2013 18:27 Акулий торнадо Скачать торрент  

    Это бред или как?pb.wtf



    11-08-2013 19:03 Акулий торнадо Скачать торрент  

    Так глупо, что даже не смешно.. pb.wtf



    11-08-2013 20:17 Акулий торнадо Скачать торрент  

    надо у сценариста спросить что курил :lol:pb.wtf



    11-08-2013 20:53 Акулий торнадо Скачать торрент  

    я под столом pb.wtf



      Дорогой пользователь! Огромная просьба, поблагодарите релизера, оцените раздачу и оставьте свои комментарий, если Вы скачали Акулий торнадо через торрент бесплатно! Внесите свою лепту в развитие PiratBit!
      Комментировать посты могут только пользователи прошедшие не сложную регистрацию
      Показать сообщения:    

      Акулий торнадо через торрент
      Скачать бесплатно Акулий торнадо
      Акулий торнадо скачать торрент
      Акулий торнадо смотреть онлайн
      Cкачать фильм Акулий торнадо бесплатно
      Акулий торнадо скачать торрент в хорошем качестве
      Акулий торнадо смотреть онлайн бесплатно в хорошем качестве


      Вы не можете начинать темы
      Вы не можете отвечать на сообщения
      Вы не можете редактировать свои сообщения
      Вы не можете удалять свои сообщения
      Вы не можете голосовать в опросах
      Вы не можете прикреплять файлы к сообщениям
      Вы можете скачивать файлы