Доктор Стрэндж

Лицензия

Добыча

Дубляж

Дом дракона

1 сезон

Тор

Дубляж

В эфире

Дубляж

Там, где раки поют

MVO

Властелин колец

1 сезон

GLOBAL

pack

Рекомендуем

30

Пиратка

ВАЖНО

ВАЖНО

Ghostwire

Пиратка

jed

RePack

nioh2

RePack

RDR2

RePack

NEED FOR SPEED™ PAYBACK

RePack

скачать торрент

Кинопоиск HD

Острые козырьки 6 сезон

6 сезон

FAR CRY 6

RePack

скачать торрент

Лицензия

скачать торрент

MVO

1

1 сезон

скачать торрент

1 сезон

скачать торрент

Лицензия

  

Копы в глубоком запасе / The Other Guys (Адам МакКэй / Adam McKay) [2010 г., боевик, комедия, криминал, BDRip 720p] Дубляж+VO [Extended Version]

Копы в глубоком запасе через торрент pb.wtf

Размер: 9.48 GB | Добавлен: 9 лет 3 мес. назад | Торрент скачан:133 раза
Смотреть онлайн | Скачать   

11-08-2013 15:57 Копы в глубоком запасе Скачать торрент  


Копы в глубоком запасе / The Other Guys

«Героями не рождаются...»

  • Год выпуска:2010
  • Страна:США
  • Жанр:боевик, комедия, криминал
  • Продолжительность: 01:56:15
  • Перевод:Профессиональный (полное дублирование) со вставками многоголосого

  • Субтитры: Russian (Voronine), Russian (seqw0), Russian Forced (Voronine)
    • Режиссер:Адам МакКей / Adam McKay

  • В ролях:Уилл Феррелл (Allen Gamble), Марк Уолберг (Terry Hoitz), Ева Мендес (Dr. Sheila Gamble), Майкл Китон (Captain Gene Mauch), Роб Риггл (Martin), Рэй Стивенсон (Roger Wesley), Стив Куган (David Ershon), Дэймон Уайанс мл. (Fosse), Сэмюэл Л. Джексон (P.K. Highsmith), Дуэйн Джонсон (Christopher Danson), Дерек Джетер (играет самого себя), Ларнел Стовэлл (Rasta)
    • Описание:
      Нью-Йоркские детективы Аллен Гэмбл и Терри Хойтз ведут полицейскую бухгалтерию. Гэмблу такая работа в радость, Хойтзу - наказание. Когда напарникам представится шанс выйти из тени - прийти на помощь своим кумирам, детективам Дэнсону и Манцетти - станет ясно, что в бухгалтерию Гэмбла и Хойтза сослали не зря...

  • Рейтинг
    kinopoisk.ru: 6.710 (32 426)
    imdb.com: 6.60 (118 355)
    MPAA: PG-13 - Детям до 13 лет просмотр не желателен
    • Качество:BDRip 720p
    • Формат:MKV
    • Видео кодек: AVC
    • Аудио кодек:DTS / AC3
    • Видео: AVC, 1280x534 (2.40:1), 6500 kbps, 23,976 fps, 0,397 bpp
    • Аудио №1: русский / AC3 / 5.1 / 48 kHz / 640 kbps / 16 bit || |Дубляж со вставками многоголосого|
      Аудио №2: русский / DTS / 5.1 / 48 kHz / 1510 kbps / 16 bit || |Одноголосый закадровый, Kub in Kubik|
      Аудио №3: русский / DTS / 5.1 / 48 kHz / 1510 kbps / 16 bit || |Одноголосый закадровый, seqw0|
      Аудио №4: английский / DTS / 5.1 / 48 kHz / 1510 kbps / 24 bit

    General
    Unique ID : 212906671942238845207758828596573858885 (0xA02C555F4B8FA36CBCD020A5DE2D6C45)
    Complete name : D:ТорентыThe.Other.Guys.720p.BluRay.3xRus.Eng.HDCLUB.mkv
    Format : Matroska
    Format version : Version 2
    File size : 9.48 GiB
    Duration : 1h 56mn
    Overall bit rate : 11.7 Mbps
    Movie name : The Other Guys (2010) - Release for HDCLUB
    Encoded date : UTC 2010-12-30 18:06:16
    Writing application : mkvmerge v3.4.0 ('Rapunzel') сборка от May 15 2010 09:38:20
    Writing library : libebml v0.8.0 + libmatroska v0.9.0

    Video
    ID : 1
    Format : AVC
    Format/Info : Advanced Video Codec
    Format profile : [email protected]
    Format settings, CABAC : Yes
    Format settings, ReFrames : 11 frames
    Codec ID : V_MPEG4/ISO/AVC
    Duration : 1h 56mn
    Bit rate : 6 500 Kbps
    Width : 1 280 pixels
    Height : 534 pixels
    Display aspect ratio : 2.40:1
    Frame rate : 23.976 fps
    Color space : YUV
    Chroma subsampling : 4:2:0
    Bit depth : 8 bits
    Scan type : Progressive
    Bits/(Pixel*Frame) : 0.397
    Stream size : 5.09 GiB (54%)
    Title : Release for HDCLUB
    Writing library : x264 core 108 r1790 8eaf8a6
    Encoding settings : cabac=1 / ref=11 / deblock=1:-3:-3 / analyse=0x3:0x113 / me=umh / subme=9 / psy=1 / psy_rd=0.90:0.00 / mixed_ref=1 / me_range=32 / chroma_me=1 / trellis=2 / 8x8dct=1 / cqm=0 / deadzone=21,11 / fast_pskip=0 / chroma_qp_offset=-2 / threads=12 / sliced_threads=0 / nr=0 / decimate=0 / interlaced=0 / constrained_intra=0 / bframes=8 / b_pyramid=2 / b_adapt=2 / b_bias=0 / direct=3 / weightb=1 / open_gop=0 / weightp=2 / keyint=250 / keyint_min=23 / scenecut=40 / intra_refresh=0 / rc_lookahead=40 / rc=2pass / mbtree=0 / bitrate=6500 / ratetol=1.0 / qcomp=0.60 / qpmin=10 / qpmax=51 / qpstep=4 / cplxblur=20.0 / qblur=0.5 / vbv_maxrate=50000 / vbv_bufsize=50000 / ip_ratio=1.40 / pb_ratio=1.30 / aq=1:0.75 / nal_hrd=none
    Language : English
    Default : Yes
    Forced : No

    Audio #1
    ID : 2
    Format : AC-3
    Format/Info : Audio Coding 3
    Mode extension : CM (complete main)
    Codec ID : A_AC3
    Duration : 1h 56mn
    Bit rate mode : Constant
    Bit rate : 640 Kbps
    Channel(s) : 6 channels
    Channel positions : Front: L C R, Side: L R, LFE
    Sampling rate : 48.0 KHz
    Bit depth : 16 bits
    Compression mode : Lossy
    Stream size : 532 MiB (5%)
    Title : AC3; 640 Kbps @ 5.1 Kbps - (Dubbing+MVO)
    Language : Russian
    Default : Yes
    Forced : No

    Audio #2
    ID : 3
    Format : DTS
    Format/Info : Digital Theater Systems
    Codec ID : A_DTS
    Duration : 1h 56mn
    Bit rate mode : Constant
    Bit rate : 1 510 Kbps
    Channel(s) : 6 channels
    Channel positions : Front: L C R, Side: L R, LFE
    Sampling rate : 48.0 KHz
    Bit depth : 16 bits
    Compression mode : Lossy
    Stream size : 1.23 GiB (13%)
    Title : DTS; 1510 Kbps @ 5.1 Kbps - (Voronine & Kub in Kubik)
    Language : Russian
    Default : No
    Forced : No

    Audio #3
    ID : 4
    Format : DTS
    Format/Info : Digital Theater Systems
    Codec ID : A_DTS
    Duration : 1h 56mn
    Bit rate mode : Constant
    Bit rate : 1 510 Kbps
    Channel(s) : 6 channels
    Channel positions : Front: L C R, Side: L R, LFE
    Sampling rate : 48.0 KHz
    Bit depth : 16 bits
    Compression mode : Lossy
    Stream size : 1.23 GiB (13%)
    Title : DTS; 1510 Kbps @ 5.1 Kbps - (seqw0)
    Language : Russian
    Default : No
    Forced : No

    Audio #4
    ID : 5
    Format : DTS
    Format/Info : Digital Theater Systems
    Codec ID : A_DTS
    Duration : 1h 56mn
    Bit rate mode : Constant
    Bit rate : 1 510 Kbps
    Channel(s) : 6 channels
    Channel positions : Front: L C R, Side: L R, LFE
    Sampling rate : 48.0 KHz
    Bit depth : 24 bits
    Compression mode : Lossy
    Stream size : 1.23 GiB (13%)
    Title : DTS; 1536 Kbps @ 5.1 ch (English)
    Language : English
    Default : No
    Forced : No

    Text #1
    ID : 6
    Format : UTF-8
    Codec ID : S_TEXT/UTF8
    Codec ID/Info : UTF-8 Plain Text
    Title : Full (Voronine)
    Language : Russian
    Default : No
    Forced : No

    Text #2
    ID : 7
    Format : UTF-8
    Codec ID : S_TEXT/UTF8
    Codec ID/Info : UTF-8 Plain Text
    Title : Forced (Voronine)
    Language : Russian
    Default : Yes
    Forced : No

    Text #3
    ID : 8
    Format : UTF-8
    Codec ID : S_TEXT/UTF8
    Codec ID/Info : UTF-8 Plain Text
    Title : Full seqw0
    Language : Russian
    Default : No
    Forced : No

    Menu
    00:00:00.000 : en:00:00:00.000
    00:09:15.805 : en:00:09:15.805
    00:13:23.010 : en:00:13:23.010
    00:19:10.065 : en:00:19:10.065
    00:26:17.659 : en:00:26:17.659
    00:31:20.253 : en:00:31:20.253
    00:36:32.231 : en:00:36:32.231
    00:42:51.235 : en:00:42:51.235
    00:50:15.971 : en:00:50:15.971
    00:57:32.282 : en:00:57:32.282
    01:03:22.089 : en:01:03:22.089
    01:14:31.008 : en:01:14:31.008
    01:22:22.061 : en:01:22:22.061
    01:29:38.831 : en:01:29:38.831
    01:36:21.984 : en:01:36:21.984
    01:42:41.988 : en:01:42:41.988


    © Оформление by Vetal



  • Скачать Копы в глубоком запасе через торрент http://i1-imageban-ru.translate.goog/out/2013/08/11/da4a2a610c22c8cffc59d3fde43c9c7a.png Скачать, смотреть онлайн Копы в глубоком запасе бесплантно в хорошем качестве Описание:Нью-Йоркские детективы Аллен Гэмбл и Терри Хойтз ведут полицейскую бухгалтерию. Гэмблу такая работа в радость, Хойтзу - наказание. ... 10 10 15
    Info! Золотая раздача, скачанное не засчитывается.
    Торрент: Зарегистрирован [2013-08-11 15:57] · скачан: 133 раз
    Статус: √ проверено
    Размер: 9.48 GB
    Как cкачать? Как скачать Копы в глубоком запасе через торрент | UTorrent

    % Раздел Тема Автор DL S | L
    Фильмы 2010 [ 1.45 GB ] Копы в глубоком запасе / The Other Guys | | HDRip Ворон Скачать
    1 | 0

    28-11-2019 20:33  


    Отключить вcю реклaмy на сайте, в т.ч. и в плеере онлайн просмотра!

      Дорогой пользователь! Огромная просьба, поблагодарите релизера, оцените раздачу и оставьте свои комментарий, если Вы скачали Копы в глубоком запасе через торрент бесплатно!!
      Комментировать посты могут только пользователи прошедшие не сложную регистрацию
      Показать сообщения:    


      Копы в глубоком запасе через торрент
      Скачать бесплатно Копы в глубоком запасе
      Копы в глубоком запасе скачать торрент
      Копы в глубоком запасе смотреть онлайн
      Cкачать фильм Копы в глубоком запасе бесплатно
      Копы в глубоком запасе скачать торрент в хорошем качестве
      Копы в глубоком запасе смотреть онлайн бесплатно в хорошем качестве
      Вы не можете начинать темы
      Вы не можете отвечать на сообщения
      Вы не можете редактировать свои сообщения
      Вы не можете удалять свои сообщения
      Вы не можете голосовать в опросах
      Вы не можете прикреплять файлы к сообщениям
      Вы можете скачивать файлы
      Копы в глубоком запасе / The Other Guys [2010 г., боевик, комедия, криминал, BDRip 720p] Дубляж+VO [Extended Version] смотреть онлайн, скачать торрент picoco.icu