Ссылка на приватное зеркало нашего сайта всего за 1$. Внимание количество ограничено!!!

2 сезон

iTunes

1 сезон

1

iTunes

iTunes

iTunes

1 сезон

RePack

30

ИГРА 18+

pack

ВАЖНО

!!Акция!!

Alien_RageХит недели

RePack

MK11
pack

Забери бонус

RePack

jed

!!Акция!!

Alien_Rage

RePack

fifa19

RePack

Assassins Creed: Odyssey

RePack

NEED FOR SPEED™ PAYBACK

4 сезон

9 сезон

Бесстыжие 9 сезон

Все сериалы

все сериалы на PB.wtf

RePack

FAR CRY 5
  

Адреналин 2: Высокое напряжение / Crank: High Voltage (Марк Невелдайн) [2009 г., Боевик, триллер, криминал, BDRip 1080p, Дубляж] pb.wtf

Адреналин 2: Высокое напряжение через торрент pb.wtf

Размер: 7.94 GB | Добавлен: 7 лет 2 мес. назад | Торрент скачан:22 раза
Скачать  

11-08-2013 19:30 Адреналин 2: Высокое напряжение Скачать торрент  

Адреналин 2: Высокое напряжение / Crank: High Voltage
Год выпуска: 2009
Страна: США
Жанр: Боевик, триллер, криминал,
Продолжительность: 01:35:50
Перевод: Дубляж+Оригинал
Субтитры: Русские, Английские

Режиссер: Марк Невелдайн

В ролях: Джейсон Стэтхэм, Эми Смарт, Клифтон Коллинз мл., Бай Лин, Дэвид Кэррадайн, Кори Хэйм, Эфрен Рамирез, Дуайт Йоакам, Гленн Хоуертон, Холли Вебер,

Описание: Он умер, но обещал вернуться! Не чудом, а благодаря современным медицинским технологиям Чев Челиос получает новое сердце и новый шанс отомстить своим врагам. Теперь для постоянной подзарядки ему требуется электрический разряд мощностью не меньше, чем у автомобильного аккумулятора...

Качество: BDRip 1080p
Формат: MKV
Видео кодек: H.264
Аудио кодек: AC3
Видео: (1920x1038), 10590 Кбит/сек, 23,976 кадр/сек
Аудио#1: AC-3, 6 ch, 640 kbps (Rus) 48.0 KHz
Аудио#2: AC-3, 6 ch, 640 kbps (Eng) 48.0 KHz

Format : Matroska
Format version : Version 4 / Version 2
File size : 7.94 GiB
Duration : 1h 35mn
Overall bit rate : 11.9 Mbps
Movie name : Адреналин 2: Высокое напряжение.(2009).BDRip.1080p.(DVD9).[NoLimits-Team]
Encoded date : UTC 2013-04-17 19:37:11
Writing application : mkvmerge v6.0.0 ('Coming Up For Air') built on Jan 20 2013 09:52:00
Writing library : libebml v1.3.0 + libmatroska v1.4.0

Video
ID : 1
Format : AVC
Format/Info : Advanced Video Codec
Format profile : High@L4.1
Format settings, CABAC : Yes
Format settings, ReFrames : 4 frames
Codec ID : V_MPEG4/ISO/AVC
Duration : 1h 35mn
Bit rate : 10.6 Mbps
Width : 1 920 pixels
Height : 1 038 pixels
Display aspect ratio : 1.85:1
Frame rate mode : Constant
Frame rate : 23.976 fps
Color space : YUV
Chroma subsampling : 4:2:0
Bit depth : 8 bits
Scan type : Progressive
Bits/(Pixel*Frame) : 0.222
Stream size : 6.93 GiB (87%)
Title : Адреналин 2: Высокое напряжение.(2009).BDRip.1080p.(DVD9).[NoLimits-Team]
Writing library : x264 core 130 r2273 b3065e6
Encoding settings : cabac=1 / ref=4 / deblock=1:0:0 / analyse=0x3:0x133 / me=umh / subme=11 / psy=1 / psy_rd=1.00:0.00 / mixed_ref=1 / me_range=64 / chroma_me=1 / trellis=2 / 8x8dct=1 / cqm=0 / deadzone=21,11 / fast_pskip=0 / chroma_qp_offset=-2 / threads=9 / lookahead_threads=2 / sliced_threads=0 / nr=0 / decimate=1 / interlaced=0 / bluray_compat=0 / constrained_intra=0 / bframes=12 / b_pyramid=2 / b_adapt=2 / b_bias=0 / direct=3 / weightb=1 / open_gop=0 / weightp=2 / keyint=240 / keyint_min=23 / scenecut=40 / intra_refresh=0 / rc_lookahead=60 / rc=2pass / mbtree=1 / bitrate=10590 / ratetol=1.0 / qcomp=0.60 / qpmin=0 / qpmax=69 / qpstep=4 / cplxblur=20.0 / qblur=0.5 / ip_ratio=1.40 / aq=1:1.00
Language : English
Default : Yes
Forced : No

Audio #1
ID : 2
Format : AC-3
Format/Info : Audio Coding 3
Mode extension : CM (complete main)
Format settings, Endianness : Big
Codec ID : A_AC3
Duration : 1h 35mn
Bit rate mode : Constant
Bit rate : 640 Kbps
Channel(s) : 6 channels
Channel positions : Front: L C R, Side: L R, LFE
Sampling rate : 48.0 KHz
Bit depth : 16 bits
Compression mode : Lossy
Stream size : 439 MiB (5%)
Title : Дублированный
Language : Russian
Default : Yes
Forced : No

Audio #2
ID : 3
Format : AC-3
Format/Info : Audio Coding 3
Mode extension : CM (complete main)
Format settings, Endianness : Big
Codec ID : A_AC3
Duration : 1h 35mn
Bit rate mode : Constant
Bit rate : 640 Kbps
Channel(s) : 6 channels
Channel positions : Front: L C R, Side: L R, LFE
Sampling rate : 48.0 KHz
Bit depth : 16 bits
Compression mode : Lossy
Stream size : 439 MiB (5%)
Title : Английский
Language : English
Default : No
Forced : No

Text
ID : 4
Format : UTF-8
Codec ID : S_TEXT/UTF8
Codec ID/Info : UTF-8 Plain Text
Title : Русские (полные)
Language : Russian
Default : No
Forced : No

Menu
00:00:00.000 : :Chapter 01
00:05:55.897 : :Chapter 02
00:09:38.494 : :Chapter 03
00:15:22.922 : :Chapter 04
00:20:45.452 : :Chapter 05
00:25:21.978 : :Chapter 06
00:29:07.620 : :Chapter 07
00:36:20.720 : :Chapter 08
00:42:15.658 : :Chapter 09
00:47:47.114 : :Chapter 10
00:50:10.090 : :Chapter 11
00:54:15.043 : :Chapter 12
01:01:00.740 : :Chapter 13
01:06:31.988 : :Chapter 14
01:15:19.431 : :Chapter 15
01:20:22.275 : :Chapter 16

pb.wtf



Скачать Адреналин 2: Высокое напряжение через торрент http://pic.kartinco.top/images/3/ufvs1wnuwx.jpg Скачать фильм Адреналин 2: Высокое напряжение через торрент бесплантно в хорошем качестве Описание: Он умер, но обещал вернуться! Не чудом, а благодаря современным медицинским технологиям Чев Челиос получает новое сердце и новый ... 10 10 9
Info! Золотая раздача, скачанное не засчитывается.
Торрент: Зарегистрирован [2013-08-11 19:30] · скачан: 22 раз
Статус: √ проверено
Размер: 7.94 GB
Как cкачать? Как скачать Адреналин 2: Высокое напряжение через торрент | qTorrent

% Раздел Тема Автор DL S | L
Фильмы [HD 720p, 1080p] (Хороший звук DUB, MVO) [ 14.41 GB ] Адреналин 2: Высокое напряжение / Crank: High Voltage [2009 BDRip 1080p] DUB +MVO +2xAVO bober100 Скачать
1 | 1
Фильмы [HD 720p, 1080p] (Хороший звук DUB, MVO) [ 5.17 GB ] Адреналин 2: Высокое напряжение / Crank 2: High Voltage [2009 BDRip 720p] DUB Ворон Скачать
1 | 0
Фильмы 2009 [ 742 MB ] Адреналин 2: Высокое напряжение / Crank 2: High Voltage [2009 HDRip DUB ] Vampir7 Скачать
1 | 0
Фильмы 2009 [ 1.35 GB ] Адреналин 2: Высокое напряжение / Crank: High Voltage [2009 DVDRip] DEVI Скачать
1 | 0
Фильмы (DVD фильмы) [ 6.07 GB ] Адреналин 2: Высокое напряжение / Crank: High Voltage [2009 DVD9] DEVI Скачать
1 | 0

28-11-2019 20:33  

Отключить всю рекламу на сайте

17-10-2020 19:59 Адреналин 2: Высокое напряжение Скачать торрент  

    Дорогой пользователь! Огромная просьба, поблагодарите релизера, оцените раздачу и оставьте свои комментарий, если Вы скачали Адреналин 2: Высокое напряжение через торрент бесплатно! Внесите свою лепту в развитие PiratBit!
    Комментировать посты могут только пользователи прошедшие не сложную регистрацию
    Показать сообщения:    

    Адреналин 2: Высокое напряжение через торрент
    Скачать бесплатно Адреналин 2: Высокое напряжение
    Адреналин 2: Высокое напряжение скачать торрент
    Адреналин 2: Высокое напряжение смотреть онлайн
    Cкачать фильм Адреналин 2: Высокое напряжение бесплатно
    Адреналин 2: Высокое напряжение скачать торрент в хорошем качестве
    Адреналин 2: Высокое напряжение смотреть онлайн бесплатно в хорошем качестве


    Вы не можете начинать темы
    Вы не можете отвечать на сообщения
    Вы не можете редактировать свои сообщения
    Вы не можете удалять свои сообщения
    Вы не можете голосовать в опросах
    Вы не можете прикреплять файлы к сообщениям
    Вы можете скачивать файлы