2 сезон

iTunes

MVO

1

2 сезон

iTunes

iTunes

1 сезон

RePack

30

Ultimate

ВАЖНО

ИГРА 18+

pack

RePack

MK11
pack

Легкие деньги

RePack

jed

RePack

fifa19

RePack

RDR2

RePack

NEED FOR SPEED™ PAYBACK

4 сезон

9 сезон

Бесстыжие 9 сезон

Все сериалы

все сериалы на PB.wtf

RePack

FAR CRY 5

Anonymous, добрый день, мы не успеваем собрать деньги на оплату серверов за декабрь и январь, помогите нам пожалуйста в это трудное время. В качестве благодарности мы отключим Вам всю рекламу на сайте (укажите свой ник в строку Ваше имя)!

×
  
Magnet ссылка

Teлeпopт в 3D / Jumреr in 3D (Дaг Лaймaн) [2008 г., Фантастика, Боевик, Приключения, BDRip 1080p, Дубляж + Оригинал] Анаглиф (Дюбуа) pb.wtf

Teлeпopт в 3D через торрент pb.wtf

Размер: 5.44 GB | Добавлен: 7 лет 5 мес. назад | Торрент скачан:62 раза
Скачать  

11-08-2013 19:36 Teлeпopт в 3D Скачать торрент  

Teлeпopт в 3D / Jumреr in 3D
Год выпуска: 2008
Страна: США, Канада
Жанр: Фантастика, Боевик, Приключения,
Продолжительность: 01:28:19
Перевод: Дубляж + Оригинал
Субтитры: Russian, English

Режиссер: Дaг Лaймaн
Продюссер: Лукас Фостер, Саймон Кинберг, Арнон Милчэн
Сценарий: Дэвид С. Гойер, Джим Улс, Саймон Кинберг

Бюджет: $85 000 000
Премьера в мире: 6 февраля 2008



В ролях: Хейден Кристенсен, Сэмюэл Л. Джексон, Дайан Лэйн, Джэми Белл, Рэйчел Билсон, Майкл Рукер, АннаСофия Робб, Макс Тириот, Джесси Джеймс, Том Хульц, Кристен Стюарт
Дублировали: Александр Солдатов, Александр Койгеров, Ксения Кладько, Вадим Гущин, Анатолий Дубанов...,

Описание: Подросток из неблагополучного района Дэвид Райс всегда считал себя обычным парнем, пока однажды он не узнал, что он может телепортироваться с места на место. Новые способности открыли перед ним весь мир. Он может побывать в Нью-Йорке и Токио, посетить античные развалины в Риме, увидеть «крышу мира» с горы Эверест, увидеть 20 рассветов и 20 закатов. И все — в один день.

Теперь ему не нужны деньги — он может взять сколько хочет. Однако в один момент он обнаруживает, что стал мишенью. На него, как и на других подобных ему, объявлена охота. На протяжении тысячи лет тайное общество стремится уничтожить их. Вскоре Дэвид узнает истинную ценность его новых способностей.


Доп. информация: Формат 3D: Анаглиф (Дюбуа)



Качество: BDRip 1080p
Формат: MKV
Видео кодек: H.264
Аудио кодек: AC3
Видео: 1920 х 1080 / 23,976 fps, (16:9) / 8008 Kbps, (0.161 bit/pixel)
Аудио#1: Русский / AC3 / 48 KHz / 5.1 ch / 384 Kbps
Аудио#2: Английский / AC3 / 48 KHz / 5.1 ch / 384 Kbps



скриншот   скриншот   скриншот   скриншот   скриншот   скриншот  
Общее
Уникальный идентификатор : 307621899325624728526856440684562278521 (0xE76DD29F7C3012EE4E3FA5B294FEE879)
Полное имя : D:DVDJumper.3D.2008.1080p.(Anaglyph_Dubois).mkv
Формат : Matroska
Версия формата : Version 2
Размер файла : 5,44 Гбайт
Продолжительность : 1 ч. 28 м.
Общий поток : 8824 Кбит/сек
Программа кодирования : HandBrake 0.9.9
Библиотека кодирования : libmkv 0.6.5
TITLE : Teлeпopт / Jumper.3D.2008.1080p.(Anaglyph_Dubois)

Видео
Идентификатор : 1
Формат : AVC
Формат/Информация : Advanced Video Codec
Профиль формата : Baseline@L4.0
Параметр CABAC формата : Нет
Параметр ReFrames формата : 4 кадра
Идентификатор кодека : V_MPEG4/ISO/AVC
Продолжительность : 1 ч. 28 м.
Битрейт : 8008 Кбит/сек
Ширина : 1920 пикселей
Высота : 1080 пикселей
Соотношение сторон : 16:9
Режим частоты кадров : Постоянный
Частота кадров : 23,976 кадра/сек
Цветовое пространство : YUV
Субдискретизация насыщенности : 4:2:0
Битовая глубина : 8 бит
Тип развёртки : Прогрессивная
Бит/(Пиксели*Кадры) : 0.161
Размер потока : 4,86 Гбайт (89%)
Библиотека кодирования : x264 core 130 r2273 b3065e6
Настройки программы : cabac=0 / ref=4 / deblock=0:-1:-1 / analyse=0:0 / me=dia / subme=0 / psy=1 / psy_rd=1.00:0.15 / mixed_ref=0 / me_range=16 / chroma_me=1 / trellis=0 / 8x8dct=0 / cqm=0 / deadzone=21,11 / fast_pskip=1 / chroma_qp_offset=0 / threads=1 / lookahead_threads=1 / sliced_threads=0 / nr=0 / decimate=1 / interlaced=0 / bluray_compat=0 / constrained_intra=0 / bframes=0 / weightp=0 / keyint=240 / keyint_min=24 / scenecut=0 / intra_refresh=0 / rc=abr / mbtree=0 / bitrate=8008 / ratetol=1.0 / qcomp=0.60 / qpmin=0 / qpmax=69 / qpstep=4 / ip_ratio=1.40 / aq=0
Язык : English
Default : Да
Forced : Нет
Основные цвета : BT.709
Характеристики трансфера : BT.709
Коэффициенты матрицы : BT.709

Аудио #1
Идентификатор : 2
Формат : AC-3
Формат/Информация : Audio Coding 3
Расширение режима : CM (complete main)
Параметр Endianness формата : Big
Идентификатор кодека : A_AC3
Продолжительность : 1 ч. 28 м.
Вид битрейта : Постоянный
Битрейт : 384 Кбит/сек
Каналы : 6 каналов
Расположение каналов : Front: L C R, Side: L R, LFE
Частота : 48,0 КГц
Битовая глубина : 16 бит
Метод сжатия : С потерями
Размер потока : 243 Мбайт (4%)
Язык : Russian
Default : Да
Forced : Нет

Аудио #2
Идентификатор : 3
Формат : AC-3
Формат/Информация : Audio Coding 3
Расширение режима : CM (complete main)
Параметр Endianness формата : Big
Идентификатор кодека : A_AC3
Продолжительность : 1 ч. 28 м.
Вид битрейта : Постоянный
Битрейт : 384 Кбит/сек
Каналы : 6 каналов
Расположение каналов : Front: L C R, Side: L R, LFE
Частота : 48,0 КГц
Битовая глубина : 16 бит
Метод сжатия : С потерями
Размер потока : 243 Мбайт (4%)
Язык : English
Default : Нет
Forced : Нет

Текст #1
Идентификатор : 4
Формат : UTF-8
Идентификатор кодека : S_TEXT/UTF8
Идентификатор кодека/Информация : UTF-8 Plain Text
Язык : Russian
Default : Нет
Forced : Нет

Текст #2
Идентификатор : 5
Формат : UTF-8
Идентификатор кодека : S_TEXT/UTF8
Идентификатор кодека/Информация : UTF-8 Plain Text
Язык : English
Default : Нет
Forced : Нет

pb.wtf



Скачать Teлeпopт в 3D через торрент http://pic.kartinco.top/images/3/ukezwfp3t6.png Скачать фильм Teлeпopт в 3D через торрент бесплантно в хорошем качестве Описание: Подросток из неблагополучного района Дэвид Райс всегда считал себя обычным парнем, пока однажды он не узнал, что он может ... 9.6 10 5
Info! Золотая раздача, скачанное не засчитывается.
Торрент: Зарегистрирован [2013-08-11 19:36] · скачан: 62 раз
Статус: √ проверено
Размер: 5.44 GB
Как cкачать? Как скачать Teлeпopт в 3D через торрент | UTorrent

% Раздел Тема Автор DL S | L
3D Фильмы [ 8.22 GB ] Teлeпopт в 3D / Jumреr in 3D [2008 BDRip 1080p + Оригинал] Half OverUnder / Вертикальная анаморфная стереопара slaventi-69 Скачать
2 | 0

28-11-2019 20:33  

Отключить всю рекламу на сайте

    Дорогой пользователь! Огромная просьба, поблагодарите релизера, оцените раздачу и оставьте свои комментарий, если Вы скачали Teлeпopт в 3D через торрент бесплатно! Внесите свою лепту в развитие PiratBit!
    Комментировать посты могут только пользователи прошедшие не сложную регистрацию
    Показать сообщения:    

    Teлeпopт в 3D через торрент
    Скачать бесплатно Teлeпopт в 3D
    Teлeпopт в 3D скачать торрент
    Teлeпopт в 3D смотреть онлайн
    Cкачать фильм Teлeпopт в 3D бесплатно
    Teлeпopт в 3D скачать торрент в хорошем качестве
    Teлeпopт в 3D смотреть онлайн бесплатно в хорошем качестве


    Вы не можете начинать темы
    Вы не можете отвечать на сообщения
    Вы не можете редактировать свои сообщения
    Вы не можете удалять свои сообщения
    Вы не можете голосовать в опросах
    Вы не можете прикреплять файлы к сообщениям
    Вы можете скачивать файлы