Всегда рабочее зеркало без VPN и Proxy просто перед .vidak.icu напиши любое слово или цифру, Пример http://hnok.vidak.icu

MVO

2 сезон

1 сезон

1

1 сезон

iTunes

2 сезон

13

1 сезон

Deluxe

pack

Рекомендуем

Пиратка

30

ВАЖНО

RePack

MK11

RePack

jed

RePack

fifa19

RePack

RDR2

RePack

NEED FOR SPEED™ PAYBACK

Кинопоиск HD

6 сезон

 Острые козырьки 6 сезон

Все сериалы

все сериалы на PB.wtf

RePack

FAR CRY 5

Anonymous, нам критически не хватает 5601 руб. на оплату серверов и переферии за Апрель, помоги нам пожалуйста, вся надежда только на тебя. В благодарность мы отключим тебе всю рекламу на сайте!

×
  
Magnet ссылка

Вне времени / Out Of Time (Карл Франклин) [2003 г., триллер, драма, криминал, BDRip 720p, MVO, лицензия] pb.wtf

Вне времени через торрент pb.wtf

Размер: 6.89 GB | Добавлен: 8 лет 9 мес. назад | Торрент скачан:125 раз
Смотреть онлайн Вне времени | Скачать    Ребята, помогите собрать деньги на оплату серверов!!!

12-08-2013 15:51 Вне времени Скачать торрент  

Вне времени / Out Of Time «The Clock Is Ticking...»
Год выпуска: 2003
Страна: США
Жанр: триллер, драма, криминал,
Продолжительность: 01:45:25
Перевод: Профессиональный многоголосый, Лицензия
Субтитры: Английские (SRT)

Режиссер: Карл Франклин

Бюджет: $50 000 000
Премьера в мире: 7 сентября 2003




В ролях: Дэнзел Вашингтон, Ева Мендес, Сэна Латан, Дин Кейн, Джон Биллингсли, Роберт Бейкер, Алекс Картер, Энтони Короун, Эвелин Брукс,

Описание: Когда уже не знаешь, во что верить, и весь мир против тебя - жизнь становится кошмаром. Для Мэтта Ли Уитлока (Дэнзел Вашингтон) этот кошмар воплощается наяву после того, как он из лучших побуждений совершает несколько опасных ошибок. Оказавшись в центре расследования поджога и убийства, Мэтт из уважаемого шерифа маленького городка превращается в главного подозреваемого. Он начинает собственное расследование и вскоре понимает, что оказался жертвой виртуозной махинации. Но теперь, чтобы доказать свою невиновность, Мэтту нужно опередить детективов, идущих по следу ложных улик, и время, которого у него нет...

Качество: BDRip 720p
Формат: MKV
Видео кодек: MPEG4
Аудио кодек: AC3- DTS
Видео: 1280x534 (2.40:1 OAR), 23.976 fps, ~7400 kbps
Аудио#1: Русский AC3 5.1 448 kbps
Аудио#2: Aнглийский DTS 5.1 1536 kbps




E:Вне времени Out Of TimeOut.Of.Time.2003.BDRip.720p.mkv
General
Unique ID : 174016366195028914123349011198868942800 (0x82EA55428EDFFEB3A4F62F662B836FD0)
Complete name : E:киноВне времени Out Of TimeOut.Of.Time.2003.BDRip.720p.mkv
Format : Matroska
Format version : Version 2
File size : 6.89 GiB
Duration : 1h 45mn
Overall bit rate : 9 359 Kbps
Movie name : Out of Time (2003)
Encoded date : UTC 2009-07-16 05:42:48
Writing application : mkvmerge v2.9.5 ('Tu es le seul') built on Jun 7 2009 11:07:07
Writing library : libebml v0.7.7 + libmatroska v0.8.1
Video #1
ID : 1
Format : AVC
Format/Info : Advanced Video Codec
Format profile : High@L4.1
Format settings, CABAC : Yes
Format settings, ReFrames : 9 frames
Codec ID : V_MPEG4/ISO/AVC
Duration : 1h 45mn
Bit rate : 7 400 Kbps
Width : 1 280 pixels
Height : 534 pixels
Display aspect ratio : 2.40:1
Frame rate mode : Constant
Frame rate : 23.976 fps
Color space : YUV
Chroma subsampling : 4:2:0
Bit depth : 8 bits
Scan type : Progressive
Bits/(Pixel*Frame) : 0.452
Stream size : 5.31 GiB (77%)
Title : Out.of.Time.2003.720p.Blu-ray.DTS.x264
Writing library : x264 core 68 r1179M 96e2229
Encoding settings : cabac=1 / ref=9 / deblock=1:-2:-2 / analyse=0x3:0x113 / me=umh / subme=9 / psy_rd=1.2:0.0 / mixed_ref=1 / me_range=24 / chroma_me=1 / trellis=2 / 8x8dct=1 / cqm=0 / deadzone=21,11 / chroma_qp_offset=-2 / threads=6 / nr=0 / decimate=1 / mbaff=0 / bframes=5 / b_pyramid=1 / b_adapt=2 / b_bias=0 / direct=3 / wpredb=1 / keyint=250 / keyint_min=25 / scenecut=40 / rc=2pass / bitrate=7400 / ratetol=1.0 / qcomp=0.60 / qpmin=10 / qpmax=51 / qpstep=4 / cplxblur=20.0 / qblur=0.5 / ip_ratio=1.40 / pb_ratio=1.30 / aq=1:1.00
Language : English
Default : Yes
Forced : No
Audio #2
ID : 2
Format : AC-3
Format/Info : Audio Coding 3
Mode extension : CM (complete main)
Format settings, Endianness : Big
Codec ID : A_AC3
Duration : 1h 45mn
Bit rate mode : Constant
Bit rate : 448 Kbps
Channel(s) : 6 channels
Channel positions : Front: L C R, Side: L R, LFE
Sampling rate : 48.0 KHz
Bit depth : 16 bits
Compression mode : Lossy
Stream size : 338 MiB (5%)
Title : AC3 5.1 448 kbps
Language : Russian
Default : Yes
Forced : No
Audio #3
ID : 3
Format : DTS
Format/Info : Digital Theater Systems
Mode : 16
Format settings, Endianness : Big
Codec ID : A_DTS
Duration : 1h 45mn
Bit rate mode : Constant
Bit rate : 1 509 Kbps
Channel(s) : 6 channels
Channel positions : Front: L C R, Side: L R, LFE
Sampling rate : 48.0 KHz
Bit depth : 24 bits
Compression mode : Lossy
Stream size : 1.11 GiB (16%)
Title : DTS 5.1 1536 kbps
Language : English
Default : No
Forced : No
Text #4
ID : 4
Format : UTF-8
Codec ID : S_TEXT/UTF8
Codec ID/Info : UTF-8 Plain Text
Language : English
Default : No
Forced : No


Вне времени скачать торрент


pb.wtf



Скачать Вне времени через торрент https://pic1.kartinco.top/images/23/ixpzkv7tpr.jpg Скачать, смотреть онлайн Вне времени бесплантно в хорошем качестве Описание: Когда уже не знаешь, во что верить, и весь мир против тебя - жизнь становится кошмаром. Для Мэтта Ли Уитлока (Дэнзел Вашингтон) ... 6 10 1
Info! Золотая раздача, скачанное не засчитывается.
Торрент: Зарегистрирован [2013-08-12 15:51] · скачан: 125 раз
Статус: √ проверено
Размер: 6.89 GB
Как cкачать? Как скачать Вне времени через торрент | UTorrent

% Раздел Тема Автор DL S | L
Фильмы с авторской озвучкой [ 1.85 GB ] Вне времени / Out Of Time [2003 BDRip] [AVO] killermax2013 Скачать
1 | 0
Фильмы [HD 720p, 1080p] (Хороший звук DUB, MVO) [ 10.45 GB ] Вне времени / Out Of Time [2003 BDRip 1080p + Оригинал] -Lexx- Скачать
1 | 0
Фильмы (Blu-ray, BD-Remux, HDDVD) [ 16.74 GB ] Вне времени / Out of Time [2003 BDRemux 1080p] Dub + DVO + AVO + Original eng + Sub rus eng Ворон Скачать
1 | 0
Фильмы 2001-2005 [ 1.46 GB ] Вне времени / Out of Time [2003 BDRip] DUB |лицензия| Mr. Freeman Скачать
1 | 0
Фильмы 2001-2005 [ 737 MB ] Вне времени / Out of Time [2003 HDRip лицензия] VintMosina Скачать
1 | 0

28-11-2019 20:33  

Отключить всю рекламу на сайте

    Дорогой пользователь! Огромная просьба, поблагодарите релизера, оцените раздачу и оставьте свои комментарий, если Вы скачали Вне времени через торрент бесплатно!
    Комментировать посты могут только пользователи прошедшие не сложную регистрацию
    Показать сообщения:    

    Вне времени через торрент
    Скачать бесплатно Вне времени
    Вне времени скачать торрент
    Вне времени смотреть онлайн
    Cкачать фильм Вне времени бесплатно
    Вне времени скачать торрент в хорошем качестве
    Вне времени смотреть онлайн бесплатно в хорошем качестве


    Вы не можете начинать темы
    Вы не можете отвечать на сообщения
    Вы не можете редактировать свои сообщения
    Вы не можете удалять свои сообщения
    Вы не можете голосовать в опросах
    Вы не можете прикреплять файлы к сообщениям
    Вы можете скачивать файлы