Ссылка на приватное зеркало нашего сайта всего за 1$. Внимание количество ограничено!!!

2 сезон

iTunes

1 сезон

1

iTunes

iTunes

iTunes

1 сезон

RePack

30

ИГРА 18+

pack

ВАЖНО

!!Акция!!

Alien_RageХит недели

RePack

MK11
pack

Забери бонус

RePack

jed

!!Акция!!

Alien_Rage

RePack

fifa19

RePack

Assassins Creed: Odyssey

RePack

NEED FOR SPEED™ PAYBACK

4 сезон

9 сезон

Бесстыжие 9 сезон

Все сериалы

все сериалы на PB.wtf

RePack

FAR CRY 5
  

Обед людоеда / Cannibal Diner (Фрэнк В. Монтаж / Frank W. Montag) [ 2012 , Германия , ужасы, триллер, детектив , HDRip , AVO ] pb.wtf

Обед людоеда через торрент pb.wtf

Размер: 1.37 GB | Добавлен: 7 лет 2 мес. назад | Торрент скачан:499 раз
Скачать  

12-08-2013 19:00 Обед людоеда Скачать торрент  

Обед людоеда / Cannibal Diner

Слоган: «Prepare to be eaten!»
Год выпуска: 2012
Страна: Германия
Жанр: ужасы, триллер, детектив
Продолжительность: 01:15:04
Перевод: Любительский (одноголосый) [den904] - перевод [МЕГАПЫХАРЬ] + Оригинальный

Режиссер: Фрэнк В. Монтаж / Frank W. Montag
В ролях: Александра Леш (Kati), Kristiana Rohder (Tanja), Lara Baum (Celine), Индира Мэдисон (Jill), Alexandra Jordan (Mele), Violetta Schurawlow (Dahlia), Mike Zick (Cannibal), Dominik Schneider (The Cook), Celina Klemenz (The Girl), Sascha Litter (Cannibal #2), Jessica Klauss (Female Vagabond)
Описание: Кати - молодая модель, направляющаяся на вечеринку в честь дня рождения своей младшей сестры Селин. Таня, лучшая подруга Кати, вместе в остальными приглашенными решает устроить эту вечеринку, разбив лагерь неподалёку от леса, но в ходе подготовки они подвергаются нападению незнакомцев. Кати, все ещё не доехавшая до нужного места, теряет ориентир и движется в ложном направлении, указанным бродягой. Когда впоследствии её автомобиль был украден, потерявшаяся Кати, блуждая в глухом лесу, неожиданно выходит к зданию старой фабрики, где клан каннибалов уже готовит основное блюдо своего банкета - её подруг.
Рейтинг
imdb.com: 5.90 (36)
Мировая премьера: 25 июня 2012

  • Качество: HDRip
  • Формат: AVI
  • Видео кодек: XviD
  • Аудио кодек: AC3
  • Видео: XviD, 720x304 (2.35:1), 2021 kbps, 23,976 fps, 0,385 bpp
  • Аудио №1: AC3 / 2.0 / 48 kHz / 192 kbps / 16 bit |Russian|
    Аудио №2: AC3 / 5.1 / 48 kHz / 384 kbps / 16 bit
    |English|
    Format : AVI
    Format/Info : Audio Video Interleave
    File size : 1.37 GiB
    Duration : 1h 15mn
    Overall bit rate : 2 612 Kbps
    Writing application : VirtualDubMod 1.5.10.2 (build 2540/release)
    Writing library : VirtualDubMod build 2540/release

    Video
    ID : 0
    Format : MPEG-4 Visual
    Format profile : Advanced Simple@L5
    Format settings, BVOP : 2
    Format settings, QPel : No
    Format settings, GMC : No warppoints
    Format settings, Matrix : Default (MPEG)
    Codec ID : XVID
    Codec ID/Hint : XviD
    Duration : 1h 15mn
    Bit rate : 2 022 Kbps
    Width : 720 pixels
    Height : 304 pixels
    Display aspect ratio : 2.35:1
    Frame rate : 23.976 fps
    Color space : YUV
    Chroma subsampling : 4:2:0
    Bit depth : 8 bits
    Scan type : Progressive
    Compression mode : Lossy
    Bits/(Pixel*Frame) : 0.385
    Stream size : 1.06 GiB (77%)
    Writing library : XviD 1.2.1 (UTC 2008-12-04)

    Audio #1
    ID : 1
    Format : AC-3
    Format/Info : Audio Coding 3
    Mode extension : CM (complete main)
    Codec ID : 2000
    Duration : 1h 15mn
    Bit rate mode : Constant
    Bit rate : 192 Kbps
    Channel(s) : 2 channels
    Channel positions : Front: L R
    Sampling rate : 48.0 KHz
    Bit depth : 16 bits
    Compression mode : Lossy
    Stream size : 103 MiB (7%)
    Alignment : Split accross interleaves
    Interleave, duration : 42 ms (1.00 video frame)
    Interleave, preload duration : 500 ms

    Audio #2
    ID : 2
    Format : AC-3
    Format/Info : Audio Coding 3
    Mode extension : CM (complete main)
    Codec ID : 2000
    Duration : 1h 15mn
    Bit rate mode : Constant
    Bit rate : 384 Kbps
    Channel(s) : 6 channels
    Channel positions : Front: L C R, Side: L R, LFE
    Sampling rate : 48.0 KHz
    Bit depth : 16 bits
    Compression mode : Lossy
    Stream size : 206 MiB (15%)
    Alignment : Split accross interleaves
    Interleave, duration : 42 ms (1.00 video frame)
    Interleave, preload duration : 500 ms
    Сэмпл / Трейлер pb.wtf



  • Скачать Обед людоеда через торрент http://i2.imageban.ru/out/2013/08/12/0eace4418417d0d331b7301f19dfe2e5.png Скачать фильм Обед людоеда через торрент бесплантно в хорошем качестве Описание: Кати - молодая модель, направляющаяся на вечеринку в честь дня рождения своей младшей сестры Селин. Таня, лучшая подруга Кати, ... 9.2 10 20
    Info! Золотая раздача, скачанное не засчитывается.
    Торрент: Зарегистрирован [2013-08-12 19:00] · скачан: 499 раз
    Статус: √ проверено
    Размер: 1.37 GB
    Как cкачать? Как скачать Обед людоеда через торрент | qTorrent

    28-11-2019 20:33  

    Отключить всю рекламу на сайте

    12-08-2013 19:23 Обед людоеда Скачать торрент  

    ну и тётки им бы в порно только и снимать)pb.wtf



    12-08-2013 19:46 Обед людоеда Скачать торрент  

    MEXAHUK66
    Это кастинг, там все еще в переди... pb.wtf



    12-08-2013 20:00 Обед людоеда Скачать торрент  

    так сиськи-то есть?pb.wtf



    12-08-2013 20:01 Обед людоеда Скачать торрент  

    mikamika2
    Качай посмотришь.pb.wtf



    12-08-2013 22:05 Обед людоеда Скачать торрент  

    зачем такое гамно вообще выкладывать? не досмотрел сей шедевр.pb.wtf



    13-08-2013 02:17 Обед людоеда Скачать торрент  

    viktorius писал(а):

    зачем такое гамно вообще выкладывать? не досмотрел сей шедевр.

    зачем так грубо? на вкус и цвет - пирожки разные!!!pb.wtf



    13-08-2013 07:48 Обед людоеда Скачать торрент  

    телки не очень и фильм ты его узнаешь из тысячи дерьма подобно этому pb.wtf



    13-08-2013 14:41 Обед людоеда Скачать торрент  

    Ну с телками и сиськами все понятно, а фильм то как?)))pb.wtf



    14-08-2013 06:54 Обед людоеда Скачать торрент  

    Khomutow писал(а):

    Ну с телками и сиськами все понятно, а фильм то как?)))

    на раз,когда дел нет,можно убидь часыpb.wtf



      Дорогой пользователь! Огромная просьба, поблагодарите релизера, оцените раздачу и оставьте свои комментарий, если Вы скачали Обед людоеда через торрент бесплатно! Внесите свою лепту в развитие PiratBit!
      Комментировать посты могут только пользователи прошедшие не сложную регистрацию
      Показать сообщения:    

      Обед людоеда через торрент
      Скачать бесплатно Обед людоеда
      Обед людоеда скачать торрент
      Обед людоеда смотреть онлайн
      Cкачать фильм Обед людоеда бесплатно
      Обед людоеда скачать торрент в хорошем качестве
      Обед людоеда смотреть онлайн бесплатно в хорошем качестве


      Вы не можете начинать темы
      Вы не можете отвечать на сообщения
      Вы не можете редактировать свои сообщения
      Вы не можете удалять свои сообщения
      Вы не можете голосовать в опросах
      Вы не можете прикреплять файлы к сообщениям
      Вы можете скачивать файлы