Ссылка на приватное зеркало нашего сайта всего за 1$. Внимание количество ограничено!!!

2 сезон

iTunes

1 сезон

1

iTunes

iTunes

iTunes

1 сезон

RePack

30

ИГРА 18+

pack

ВАЖНО

!!Акция!!

Alien_RageХит недели

RePack

MK11
pack

Забери бонус

RePack

jed

!!Акция!!

Alien_Rage

RePack

fifa19

RePack

Assassins Creed: Odyssey

RePack

NEED FOR SPEED™ PAYBACK

4 сезон

9 сезон

Бесстыжие 9 сезон

Все сериалы

все сериалы на PB.wtf

RePack

FAR CRY 5
  

Нарочно не придумаешь (Александр Хван) [ 2013 , Беларусь , мелодрама , HDTVRip , Original ] pb.wtf

Нарочно не придумаешь через торрент pb.wtf

Размер: 1.37 GB | Добавлен: 7 лет 2 мес. назад | Торрент скачан:209 раз
Скачать  

13-08-2013 05:04 Нарочно не придумаешь Скачать торрент  

Нарочно не придумаешь

Год выпуска: 2013
Страна: Беларусь, Продюсерская компания "Медиапрофсоюз", ООО "Тесей Продакшн"
Жанр: мелодрама
Продолжительность: 01:44:29
Перевод: Не требуется

Режиссер: Александр Хван
В ролях: Елена Дробышева (Марина), Владислав Ветров (Велигоров), Игорь Денисов, Анна Маланкина, Сергей Жбанков (Артём), Татьяна Чердынцева (Лера)
Описание: Марине за 40, она работает портнихой в ателье, живёт со взрослой дочкой Лерой, которую вырастила и воспитала одна. Мысленно «поставив на себе крест», Марина не замечает, что в неё влюбляется клиент - солидный бизнесмен Велигоров, только очень застенчивый...
Рейтинг
kinopoisk.ru: 5.800 (31)


  • Качество: HDTVRip
  • Формат: AVI
  • Видео кодек: XviD
  • Аудио кодек: AC3
  • Видео: XviD, 720x400 (16:9), 1673 kbps, 25 fps, 0,232 bpp
  • Аудио: AC3 / 2.0 / 48 kHz / 192 kbps / 16 bit
    Format : AVI
    Format/Info : Audio Video Interleave
    File size : 1.37 GiB
    Duration : 1h 44mn
    Overall bit rate : 1 875 Kbps
    Writing application : VirtualDubMod 1.5.10.3 | www.virtualdub-fr.org || (build 2550/release)
    Writing library : VirtualDubMod build 2550/release

    Video
    ID : 0
    Format : MPEG-4 Visual
    Format profile : Advanced Simple@L5
    Format settings, BVOP : 1
    Format settings, QPel : No
    Format settings, GMC : No warppoints
    Format settings, Matrix : Default (H.263)
    Codec ID : XVID
    Codec ID/Hint : XviD
    Duration : 1h 44mn
    Bit rate : 1 673 Kbps
    Width : 720 pixels
    Height : 400 pixels
    Display aspect ratio : 16:9
    Frame rate : 25.000 fps
    Color space : YUV
    Chroma subsampling : 4:2:0
    Bit depth : 8 bits
    Scan type : Progressive
    Compression mode : Lossy
    Bits/(Pixel*Frame) : 0.232
    Stream size : 1.22 GiB (89%)
    Writing library : XviD 1.2.1 (UTC 2008-12-04)

    Audio
    ID : 1
    Format : AC-3
    Format/Info : Audio Coding 3
    Mode extension : CM (complete main)
    Codec ID : 2000
    Duration : 1h 44mn
    Bit rate mode : Constant
    Bit rate : 192 Kbps
    Channel(s) : 2 channels
    Channel positions : Front: L R
    Sampling rate : 48.0 KHz
    Bit depth : 16 bits
    Compression mode : Lossy
    Stream size : 143 MiB (10%)
    Alignment : Split accross interleaves
    Interleave, duration : 40 ms (1.00 video frame)
    Interleave, preload duration : 500 ms
    pb.wtf



  • Скачать Нарочно не придумаешь через торрент http://i6.imageban.ru/out/2013/08/13/8f7ff1289258d53d4787e181fe4e5b58.png Скачать фильм Нарочно не придумаешь через торрент бесплантно в хорошем качестве Описание: Марине за 40, она работает портнихой в ателье, живёт со взрослой дочкой Лерой, которую вырастила и воспитала одна. Мысленно ... 9.7 10 10
    Info! Золотая раздача, скачанное не засчитывается.
    Торрент: Зарегистрирован [2013-08-13 05:04] · скачан: 209 раз
    Статус: √ проверено
    Размер: 1.37 GB
    Как cкачать? Как скачать Нарочно не придумаешь через торрент | qTorrent

    28-11-2019 20:33  

    Отключить всю рекламу на сайте

      Дорогой пользователь! Огромная просьба, поблагодарите релизера, оцените раздачу и оставьте свои комментарий, если Вы скачали Нарочно не придумаешь через торрент бесплатно! Внесите свою лепту в развитие PiratBit!
      Комментировать посты могут только пользователи прошедшие не сложную регистрацию
      Показать сообщения:    

      Нарочно не придумаешь через торрент
      Скачать бесплатно Нарочно не придумаешь
      Нарочно не придумаешь скачать торрент
      Нарочно не придумаешь смотреть онлайн
      Cкачать фильм Нарочно не придумаешь бесплатно
      Нарочно не придумаешь скачать торрент в хорошем качестве
      Нарочно не придумаешь смотреть онлайн бесплатно в хорошем качестве


      Вы не можете начинать темы
      Вы не можете отвечать на сообщения
      Вы не можете редактировать свои сообщения
      Вы не можете удалять свои сообщения
      Вы не можете голосовать в опросах
      Вы не можете прикреплять файлы к сообщениям
      Вы можете скачивать файлы