Ссылка на приватное зеркало всего за 1$. Внимание количество ограничено!!!

iTunes

iTunes

iTunes

1

iTunes

iTunes

iTunes

iTunes

iTunes

30
pack

$ от Little Big

ВАЖНО

!!Акция!!

Alien_RageХит недели

RePack

Resident Evil 21

ИГРА 18+

pack

RePack

jed

!!Акция!!

Alien_Rage

RePack

fifa19

RePack

Assassins Creed: Odyssey

RePack

NEED FOR SPEED™ PAYBACK

4 сезон

9 сезон

Бесстыжие 9 сезон

Все сериалы

все сериалы на PB.wtf

RePack

FAR CRY 5
  

Заповедная дорога / Reservation Road (Терри Джордж) [2007 г., драма, семейный, триллер, HDTV 1080i, MVO+Eng+Ger] pb.wtf

Заповедная дорога через торрент pb.wtf

Размер: 6.63 GB | Добавлен: 6 лет 11 мес. назад | Торрент скачан:37 раз
Скачать  

13-08-2013 10:33 Заповедная дорога Скачать торрент  

Заповедная дорога / Reservation Road «Боль утраты против угрызений совести...»
Год выпуска: 2007
Страна: США, Германия
Жанр: драма, семейный, триллер,
Продолжительность: 01:38:11
Перевод: Профессиональный многоголосый(закадровый)

Режиссер: Терри Джордж

Премьера в мире: 13 сентября 2007




В ролях: Хоакин Феникс, Эль Фаннинг, Дженнифер Коннелли, Шон Керли, Сэмюэл Райан Финн, Эдди Алдерсон, Марк Руффало, Сьюзэн Пауэлл, Корделл Клайд, Энтони Короне,

Описание: Теплым сентябрьским вечером профессор колледжа Этан Лернер, его жена Грас и их дочь Эмма посещают сольный концерт. Их 10-летний сын Джош играет на виолончели — красиво, как обычно. Его младшая сестра смотрит на него, и родители гордятся своим сыном. На обратном пути домой они все останавливаются на бензоколонке у Заповедной дороги…

Качество: HDTV 1080i
Формат:MPEG-TS
Видео кодек: H.264
Аудио кодек: AC3
Видео: 1920x1080 9 666 Кбит/сек ~ 8 348 Kbps 25,000 кадр/сек 16:9
Аудио#1: 48 kHz, Dolby Digital, 3/2 (L,C,R,l,r) + LFE ch, ~448.00 kbps Rus
Аудио#2: 48 kHz, Dolby Digital, 2/0 (L,R) ch, ~192.00 kbps Eng
Аудио#3: 48 kHz, Dolby Digital, 2/0 (L,R) ch, ~192.00 kbps Ger




E:Запретная дорогаReservation.Road.2007.1080i.HDTV.h264.
General #1
ID : 1 (0x1)
Complete name : E:киноЗапретная дорогаReservation.Road.2007.1080i.HDTV.h264.
Format : MPEG-TS
File size : 6.63 GiB
Duration : 1h 38mn
Overall bit rate mode : Variable
Overall bit rate : 9 666 Kbps
Maximum Overall bit rate : 35.5 Mbps
Video #4113
ID : 4113 (0x1011)
Menu ID : 1 (0x1)
Format : AVC
Format/Info : Advanced Video Codec
Format profile : High@L4.0
Format settings, CABAC : Yes
Format settings, ReFrames : 3 frames
Format settings, GOP : M=4, N=32
Codec ID : 27
Duration : 1h 38mn
Bit rate mode : Variable
Bit rate : 8 348 Kbps
Maximum bit rate : 40.0 Mbps
Width : 1 920 pixels
Height : 1 080 pixels
Display aspect ratio : 16:9
Frame rate : 25.000 fps
Standard : Component
Color space : YUV
Chroma subsampling : 4:2:0
Bit depth : 8 bits
Scan type : Interlaced
Scan order : Top Field First
Bits/(Pixel*Frame) : 0.161
Stream size : 5.72 GiB (86%)
Color primaries : BT.709
Transfer characteristics : BT.709
Matrix coefficients : BT.709
Audio #4352
ID : 4352 (0x1100)
Menu ID : 1 (0x1)
Format : AC-3
Format/Info : Audio Coding 3
Mode extension : CM (complete main)
Format settings, Endianness : Big
Codec ID : 129
Duration : 1h 38mn
Bit rate mode : Constant
Bit rate : 448 Kbps
Channel(s) : 6 channels
Channel positions : Front: L C R, Side: L R, LFE
Sampling rate : 48.0 KHz
Bit depth : 16 bits
Compression mode : Lossy
Stream size : 315 MiB (5%)
Language : Russian
Audio #4353
ID : 4353 (0x1101)
Menu ID : 1 (0x1)
Format : AC-3
Format/Info : Audio Coding 3
Mode extension : CM (complete main)
Format settings, Endianness : Big
Codec ID : 129
Duration : 1h 38mn
Bit rate mode : Constant
Bit rate : 192 Kbps
Channel(s) : 2 channels
Channel positions : Front: L R
Sampling rate : 48.0 KHz
Bit depth : 16 bits
Compression mode : Lossy
Stream size : 135 MiB (2%)
Language : English
Audio #4354
ID : 4354 (0x1102)
Menu ID : 1 (0x1)
Format : AC-3
Format/Info : Audio Coding 3
Mode extension : CM (complete main)
Format settings, Endianness : Big
Codec ID : 129
Duration : 1h 38mn
Bit rate mode : Constant
Bit rate : 192 Kbps
Channel(s) : 2 channels
Channel positions : Front: L R
Sampling rate : 48.0 KHz
Bit depth : 16 bits
Compression mode : Lossy
Stream size : 135 MiB (2%)
Language : German


Заповедная дорога скачать торрент


pb.wtf



Скачать Заповедная дорога через торрент http://pic.kartinco.top/images/3/ucodmfj24g.jpg Скачать фильм Заповедная дорога через торрент бесплантно в хорошем качестве Описание: Теплым сентябрьским вечером профессор колледжа Этан Лернер, его жена Грас и их дочь Эмма посещают сольный концерт. Их 10-летний ... 10 10 6
Info! Золотая раздача, скачанное не засчитывается.
Торрент: Зарегистрирован [2013-08-13 10:33] · скачан: 37 раз
Статус: √ проверено
Размер: 6.63 GB
Как cкачать? Как скачать Заповедная дорога через торрент | qTorrent



Последний раз редактировалось: Assasinca (2013-08-13 11:21), всего редактировалось 2 раз(а)

28-11-2019 20:33  

Отключить всю рекламу на сайте

13-08-2013 17:41 Заповедная дорога Скачать торрент  

Assasinca
Мне интересно твое мнение о фильмеpb.wtf



14-08-2013 06:54 Заповедная дорога Скачать торрент  

Гибель ребенка не от хладнокровного убийцы, а от невнимательности, вопросы совести и внутренний мир героев ,в фильме раскрыты идеально. Этот фильм не для любителей резни- это психологическая драма, которая показывает зрителю меру ответственности на любое наше действо.pb.wtf



16-08-2013 19:51 Заповедная дорога Скачать торрент  

Assasinca
Спасибо)pb.wtf



    Дорогой пользователь! Огромная просьба, поблагодарите релизера, оцените раздачу и оставьте свои комментарий, если Вы скачали Заповедная дорога через торрент бесплатно! Внесите свою лепту в развитие PiratBit!
    Комментировать посты могут только пользователи прошедшие не сложную регистрацию
    Показать сообщения:    

    Заповедная дорога через торрент
    Скачать бесплатно Заповедная дорога
    Заповедная дорога скачать торрент
    Заповедная дорога смотреть онлайн
    Cкачать фильм Заповедная дорога бесплатно
    Заповедная дорога скачать торрент в хорошем качестве
    Заповедная дорога смотреть онлайн бесплатно в хорошем качестве


    Вы не можете начинать темы
    Вы не можете отвечать на сообщения
    Вы не можете редактировать свои сообщения
    Вы не можете удалять свои сообщения
    Вы не можете голосовать в опросах
    Вы не можете прикреплять файлы к сообщениям
    Вы можете скачивать файлы