Мега распродажа FORZA HORIZON 4 ULTIMATE+ВСЕ DLC+ОНЛАЙН всего за 499р. 349 руб. (супер цена). Внимание количество ограничено!!!

Лицензия

30

iTunes

мы

iTunes

1

1 сезон

Чернобыль

1 сезон

Ральф против интернета

MVO

Покемон. Детектив Пикачу

8 сезон

Игра престолов

iTunes

1+1

ИГРА 18+

pack

ВАЖНО

!!Акция!!

Alien_RageХит недели

RePack

Resident Evil 21
pack

RePack

Metro:Exodus

!!Акция!!

Alien_Rage

RePack

fifa19

RePack

Assassins Creed: Odyssey

RePack

NEED FOR SPEED™ PAYBACK

3 сезон

9 сезон

Бесстыжие 9 сезон

Все сериалы

все сериалы на PB.wtf

RePack

FAR CRY 5
Ребята, катастрофически не хватает 2730р. для оплаты серверов за МАЙ (всвязи с блокировками трафик упал в 3 раза), 1-2р., выручайте.
  

Атака Титанов / Shingeki no Kyojin / Attack on Titan / Вторжение Гигантов [TV+Special] [25+1 из 25+1] [Без хардсаба] [2013 г., Приключения, ужасы, фентези, HDTVRip, Профессиональный закадровый (Kansai studio)] pb.wtf

Атака Титанов через торрент pb.wtf

Качают: 1 [ 0 KB/s ]
Размер: 12.2 GB | Добавлен: 5 лет 8 мес. назад | Торрент скачан:902 раза
Скачать  

13-08-2013 12:21 Атака Титанов Скачать торрент  

Атака Титанов / Shingeki no Kyojin / Attack on Titan

Страна: Япония
Год выпуска: 2013 г.
Жанр: Приключения, ужасы, фентези
Перевод: Профессиональный закадровый. Kansai studio (Без хардсаба)
Продолжительность: ~ 00:25:00
Режиссер: Араки Тэцуро
Студия: WIT
Описание:Они говорили нам, что здесь безопасно, что нам больше не нужно бояться. Они лгали нам.
Сто лет бездействия сделали нас беспомощными.
Сможем ли мы вспомнить, кто мы есть на самом деле? Сможем ли взять ответственность за будущее в свои руки?
Что сможем противопоставить Их силе? Их жестокости, их голоду... Будем ли мы когда-нибудь свободны?
Качество: HDTVRip
Формат видео: MP4
Видео кодек: AVC
Аудио кодек: AAC
Видео: 1280x720 (16:9), 23.976 fps, 2 381 Kbps
Аудио: 48.0 KHz, 2 ch, 256 Kbps, VBR (Russian)
Автор рипа: Zero-Raws


Код:

Внимание! Раздача ведётся путём добавления новых серий; при каждом добавлении создётся новый торрент. Чтобы начать докачку новой серии, пользователям необходимо сделать следующее:

[*]Остановить скачивание,
[*]Удалить старый торрент у себя из клиента (старые серии удалять не надо),
[*]Скачать новый торрент и запустить его у себя в клиенте вместо старого, при этом указать клиенту путь в старую папку куда и должно происходить скачивание новых серий.
Ваш клиент при этом должен произвести хеширование (проверку) старой папки (если не производит сам - помогите ему сделать это), и будет докачивать только те серии которых у вас ещё нет. Старые серии при этом не удаляются, а продолжают раздаваться!

Eсли вы уже удалили старые серии, то предотвратить повторную закачку старых серий можно, отжав галочку в соответсвующих местах при запуске нового торрента. По возможности, желательно не удалять старые серии как можно дольше чтобы релизёр не столько продолжал раздавать старые серии, а смог сконцентрироваться на новых.

01. К тебе. 2000 лет спустя.
02. В этот день, пала Сигансия.
03. Возрождение человечества. Часть первая. Тусклый лучик надежды в пучине отчаяния.
04. Возрождение человечества. Часть вторая. Ночь распределения.
05. Первая битва. Защита Троста. Часть первая.
06. Мир что она лицезрела. Защита Троста. Часть вторая.
07. Короткий Клинок. Защита Троста. Часть третья.
08. Я слышу сердцебиение. Защита Троста. Часть четвёртая.
09. Куда делась левая рука?. Защита Троста. Часть пятая.
10. Ответ. Защита Троста. Часть шестая.
11. Идол. Защита Троста. Часть седьмая.
12. Рана. Защита Троста. Часть восьмая.
13. Первобытное желание. Защита Троста. Часть девятая.
Special. 13,5. С того дня.
14. Не могу смотреть ему в глаза. Прелюдия к контратаке. Часть первая.
15. Отряд специального назначения. Прелюдия к контратаке. Часть вторая.
16. Что делать дальше? Прелюдия к контратаке. Часть третья.
17. Титан женского пола.
18. Лес гигантских деревьев.
19. Укус.
20. Эрвин Смит.
21. Сокрушающий Удар.
22. Побеждённые.
23. Улыбка.
24. Сожаление.
24. Стена.
Общее
Полное имя : D:ТОРРЕНТShingeki no Kyojin [KANSAI][KANSAI] Shingeki no Kyojin - 04 1280x720.mp4
Формат : MPEG-4
Профиль формата : Base Media
Идентификатор кодека : isom
Размер файла : 519 Мбайт
Продолжительность : 26 м.
Режим общего битрейта : Переменный
Общий поток : 2760 Кбит/сек
Дата кодирования : UTC 2013-04-27 19:03:48
Дата пометки : UTC 2013-04-27 19:03:48
Программа кодирования : Yamb 2.1.0.0 [http://yamb.unite-video.com]

Видео
Идентификатор : 1
Формат : AVC
Формат/Информация : Advanced Video Codec
Профиль формата : High@L3.1
Параметр CABAC формата : Да
Параметр ReFrames формата : 4 кадра
Идентификатор кодека : avc1
Идентификатор кодека/Информация : Advanced Video Coding
Продолжительность : 26 м.
Битрейт : 2500 Кбит/сек
Максимальный битрейт : 15,3 Мбит/сек
Ширина : 1280 пикселей
Высота : 720 пикселей
Соотношение сторон : 16:9
Режим частоты кадров : Постоянный
Частота кадров : 23,976 кадра/сек
Цветовое пространство : YUV
Субдискретизация насыщенности : 4:2:0
Битовая глубина : 8 бит
Тип развёртки : Прогрессивная
Бит/(Пиксели*Кадры) : 0.113
Размер потока : 470 Мбайт (91%)
Библиотека кодирования : x264 core 128 r2216+698 b3c1019
Настройки программы : cabac=1 / ref=3 / deblock=1:0:0 / analyse=0x3:0x113 / me=hex / subme=7 / psy=1 / fade_compensate=0.00 / psy_rd=1.00:0.00 / mixed_ref=1 / me_range=16 / chroma_me=1 / trellis=1 / 8x8dct=1 / cqm=0 / deadzone=21,11 / fast_pskip=1 / chroma_qp_offset=-2 / threads=12 / lookahead_threads=2 / sliced_threads=0 / nr=0 / decimate=1 / interlaced=0 / bluray_compat=0 / constrained_intra=0 / fgo=0 / bframes=3 / b_pyramid=2 / b_adapt=1 / b_bias=0 / direct=1 / weightb=1 / open_gop=0 / weightp=2 / keyint=250 / keyint_min=23 / scenecut=40 / intra_refresh=0 / rc_lookahead=40 / rc=crf / mbtree=1 / crf=19.5000 / qcomp=0.60 / qpmin=0 / qpmax=69 / qpstep=4 / ip_ratio=1.40 / aq=1:1.00
Дата кодирования : UTC 2013-04-27 21:02:30
Дата пометки : UTC 2013-04-27 19:03:50

Аудио
Идентификатор : 2
Формат : AAC
Формат/Информация : Advanced Audio Codec
Профиль формата : LC
Идентификатор кодека : 40
Продолжительность : 26 м.
Вид битрейта : Переменный
Битрейт : 256 Кбит/сек
Максимальный битрейт : 262 Кбит/сек
Каналы : 2 канала
Расположение каналов : Front: L R
Частота : 48,0 КГц
Метод сжатия : С потерями
Задержка видео : 83 мс.
Размер потока : 48,2 Мбайт (9%)
Заголовок : Kansai
Язык : Russian
Дата кодирования : UTC 2013-04-27 19:03:49
Дата пометки : UTC 2013-04-27 19:03:50
Добавлена 25 серия, заключительная. (29.09.2013)pb.wtf



Скачать Атака Титанов через торрент http://pic.kartinco.top/images/3/riboap5uh9.png Скачать фильм Атака Титанов через торрент бесплантно в хорошем качестве Описание:Они говорили нам, что здесь безопасно, что нам больше не нужно бояться. Они лгали нам. Сто лет бездействия сделали нас ... 9.9 10 50
Info! Золотая раздача, скачанное не засчитывается.
Торрент: Зарегистрирован [2013-09-29 19:47] · скачан: 902 раз
Статус: √ проверено
Размер: 12.2 GB
Как cкачать? Как скачать Атака Титанов через торрент | qTorrent



Последний раз редактировалось: лисяра (2013-09-29 22:23), всего редактировалось 13 раз(а)


>> Регистрируемся здесь <<






Отзывы и комментарии о схеме читаем и пишем здесь: ---> Отзывы и комментарии о схеме

Новые благодарочки в телеграм довольных пользователей:
скриншот   скриншот   скриншот   скриншот   скриншот

13-08-2013 12:30 Атака Титанов Скачать торрент  

лисяра
Спасибо тебе огромное:)pb.wtf



13-08-2013 12:31 Атака Титанов Скачать торрент  

Muhava писал(а):

лисяра
Спасибо тебе огромное:)

pb.wtf



22-09-2013 13:51 Атака Титанов Скачать торрент  

клевый сериал спсpb.wtf



23-09-2013 06:31 Атака Титанов Скачать торрент  

Добавил двадцать пятую, заключительную "Стена".

Хешируйте
pb.wtf



16-11-2013 14:14 Атака Титанов Скачать торрент  

Превосходный аниме.... очень понравилось.... жду ТВ-2. Надеюсь, что будетpb.wtf



05-01-2014 11:01 Атака Титанов Скачать торрент  

Отличная анимеха =) Спс за раздачу!!pb.wtf



20-01-2014 14:01 Атака Титанов Скачать торрент  

Отзывы неоднозначные, но в основном сравнивают с мангой, а не просто по факту качества самого аниме. Скачаю всё же, посмотрю сам. Спасибо.pb.wtf



09-11-2015 18:24 Атака Титанов Скачать торрент  

самая хорошая раздача титанов что я обнаружил на торрентах... качество перевода и картинки.. СПАСИБО! пиратбит збс ))pb.wtf



05-01-2016 09:18 Атака Титанов Скачать торрент  

24.сожаление.
24.стена.
почему не 25 а 24???pb.wtf



27-01-2016 16:43 Атака Титанов Скачать торрент  

шик. блеск. спасибо! pb.wtf



    Дорогой пользователь! Огромная просьба, поблагодарите релизера, оцените раздачу и оставьте свои комментарий, если Вы скачали Атака Титанов через торрент бесплатно! Внесите свою лепту в развитие PiratBit!
    Комментировать посты могут только пользователи прошедшие не сложную регистрацию
    Показать сообщения:    

    Атака Титанов через торрент
    Скачать бесплатно Атака Титанов
    Атака Титанов скачать торрент
    Атака Титанов смотреть онлайн
    Cкачать фильм Атака Титанов бесплатно
    Атака Титанов скачать торрент в хорошем качестве
    Атака Титанов смотреть онлайн бесплатно в хорошем качестве


    Вы не можете начинать темы
    Вы не можете отвечать на сообщения
    Вы не можете редактировать свои сообщения
    Вы не можете удалять свои сообщения
    Вы не можете голосовать в опросах
    Вы не можете прикреплять файлы к сообщениям
    Вы можете скачивать файлы