Ссылка на приватное зеркало нашего сайта всего за 1$. Внимание количество ограничено!!!

2 сезон

iTunes

1 сезон

1

iTunes

iTunes

iTunes

1 сезон

RePack

30

ИГРА 18+

pack

ВАЖНО

!!Акция!!

Alien_RageХит недели

RePack

MK11
pack

Забери бонус

RePack

jed

!!Акция!!

Alien_Rage

RePack

fifa19

RePack

Assassins Creed: Odyssey

RePack

NEED FOR SPEED™ PAYBACK

4 сезон

9 сезон

Бесстыжие 9 сезон

Все сериалы

все сериалы на PB.wtf

RePack

FAR CRY 5
  

Механик / The Mechanic (Саймон Уэст) [2011 г., боевик, триллер, криминал, BDRip 1080p, Дубляж] pb.wtf

Механик через торрент pb.wtf

Размер: 7.76 GB | Добавлен: 7 лет 2 мес. назад | Торрент скачан:50 раз
Скачать  

13-08-2013 12:35 Механик Скачать торрент  

Механик / The Mechanic
Год выпуска: 2011
Страна: США
Жанр: боевик, триллер, криминал,
Продолжительность: 01:32:44
Перевод: Дублированный + Оригинал
Субтитры: Русские, Английские

Режиссер: Саймон Уэст

В ролях: Джейсон Стэтхэм, Бен Фостер, Тони Голдуин, Дональд Сазерленд, Джефф Чейз, Мини Анден, Джеймс Логан, Эдди Дж. Фернандез, Джошуа Бриджуотер, Джон МакКоннелл, Криста Кэмпбелл,

Описание: Артур Бишоп — «Механик», высокопрофессиональный безукоризненный киллер, который всегда работает по правилам — «чисто» и без следов. Такая работа требует полного самообладания и беспристрастности, и в своём деле ему нет равных. Бишоп всегда работал один, но ему пришлось стать наставником молодого и отчаянного Стива. Методичный профессионал и импульсивный ученик теперь на пару «устраняют проблемы», но рано или поздно они сойдутся в смертельной схватке…

Качество: BDRip 1080p
Формат: MKV
Видео кодек: H.264
Аудио кодек: AC3
Видео: (1920x800), 10.7 Mbps, 23.976 fps
Аудио#1: AC-3, 6 ch, 640 kbps (Rus) 48.0 KHz
Аудио#2: AC-3, 6 ch, 640 kbps (Eng) 48.0 KHz

Общее
Уникальный идентификатор : 240445850303030306906535067851110270926 (0xB4E42FB206E6344989075ECCA550C7CE)
Полное имя : Механик.2011.BDRip.1080p.Rus.Eng.mkv
Формат : Matroska
Версия формата : Version 4 / Version 2
Размер файла : 7,76 Гбайт
Продолжительность : 1 ч. 32 м.
Общий поток : 12,0 Мбит/сек
Название фильма : Механик.2011
Дата кодирования : UTC 2013-03-05 17:33:32
Программа кодирования : mkvmerge v6.0.0 ('Coming Up For Air') built on Jan 20 2013 09:52:00
Библиотека кодирования : libebml v1.3.0 + libmatroska v1.4.0

Видео
Идентификатор : 1
Формат : AVC
Формат/Информация : Advanced Video Codec
Профиль формата : High@L4.1
Параметр CABAC формата : Да
Параметр ReFrames формата : 5 кадров
Идентификатор кодека : V_MPEG4/ISO/AVC
Продолжительность : 1 ч. 32 м.
Битрейт : 10,7 Мбит/сек
Ширина : 1920 пикселей
Высота : 800 пикселей
Соотношение сторон : 2,40:1
Режим частоты кадров : Постоянный
Частота кадров : 23,976 кадра/сек
Цветовое пространство : YUV
Субдискретизация насыщенности : 4:2:0
Битовая глубина : 8 бит
Тип развёртки : Прогрессивная
Бит/(Пиксели*Кадры) : 0.291
Размер потока : 6,78 Гбайт (87%)
Заголовок : Rip by Boriy
Библиотека кодирования : x264 core 130 r2273 b3065e6
Настройки программы : cabac=1 / ref=5 / deblock=1:-3:-3 / analyse=0x3:0x113 / me=umh / subme=10 / psy=1 / psy_rd=1.00:0.10 / mixed_ref=1 / me_range=32 / chroma_me=1 / trellis=2 / 8x8dct=1 / cqm=0 / deadzone=21,11 / fast_pskip=0 / chroma_qp_offset=-2 / threads=12 / lookahead_threads=1 / sliced_threads=0 / nr=0 / decimate=0 / interlaced=0 / bluray_compat=0 / constrained_intra=0 / bframes=5 / b_pyramid=2 / b_adapt=2 / b_bias=0 / direct=3 / weightb=1 / open_gop=0 / weightp=2 / keyint=240 / keyint_min=23 / scenecut=40 / intra_refresh=0 / rc=2pass / mbtree=0 / bitrate=10700 / ratetol=1.0 / qcomp=0.60 / qpmin=0 / qpmax=69 / qpstep=4 / cplxblur=20.0 / qblur=0.5 / ip_ratio=1.40 / pb_ratio=1.30 / aq=1:0.80
Язык : English
Default : Да
Forced : Нет

Аудио #1
Идентификатор : 2
Формат : AC-3
Формат/Информация : Audio Coding 3
Расширение режима : CM (complete main)
Параметр Endianness формата : Big
Идентификатор кодека : A_AC3
Продолжительность : 1 ч. 32 м.
Вид битрейта : Постоянный
Битрейт : 640 Кбит/сек
Каналы : 6 каналов
Расположение каналов : Front: L C R, Side: L R, LFE
Частота : 48,0 КГц
Битовая глубина : 16 бит
Метод сжатия : С потерями
Размер потока : 425 Мбайт (5%)
Заголовок : Дубляж
Язык : Russian
Default : Да
Forced : Нет

Аудио #2
Идентификатор : 3
Формат : AC-3
Формат/Информация : Audio Coding 3
Расширение режима : CM (complete main)
Параметр Endianness формата : Big
Идентификатор кодека : A_AC3
Продолжительность : 1 ч. 32 м.
Вид битрейта : Постоянный
Битрейт : 640 Кбит/сек
Каналы : 6 каналов
Расположение каналов : Front: L C R, Side: L R, LFE
Частота : 48,0 КГц
Битовая глубина : 16 бит
Метод сжатия : С потерями
Размер потока : 425 Мбайт (5%)
Заголовок : Оригинал
Язык : English
Default : Нет
Forced : Нет

Текст #1
Идентификатор : 4
Формат : UTF-8
Идентификатор кодека : S_TEXT/UTF8
Идентификатор кодека/Информация : UTF-8 Plain Text
Язык : Russian
Default : Нет
Forced : Нет

Текст #2
Идентификатор : 5
Формат : UTF-8
Идентификатор кодека : S_TEXT/UTF8
Идентификатор кодека/Информация : UTF-8 Plain Text
Язык : English
Default : Нет
Forced : Нет

Меню
00:00:00.000 : :Chapter 1
00:07:03.464 : :Chapter 2
00:12:50.936 : :Chapter 3
00:17:09.403 : :Chapter 4
00:22:30.140 : :Chapter 5
00:31:38.938 : :Chapter 6
00:36:59.967 : :Chapter 7
00:39:56.018 : :Chapter 8
00:48:35.537 : :Chapter 9
00:54:08.828 : :Chapter 10
01:03:33.392 : :Chapter 11
01:07:18.993 : :Chapter 12
01:12:54.953 : :Chapter 13
01:16:58.530 : :Chapter 14
01:19:37.022 : :Chapter 15
01:23:10.986 : :Chapter 16

pb.wtf



Скачать Механик через торрент http://pic.kartinco.top/images/3/itxm7gbxoe.png Скачать фильм Механик через торрент бесплантно в хорошем качестве Описание: Артур Бишоп — «Механик», высоко безукоризненный киллер, который всегда работает по правилам — «чисто» и без ... 10 10 10
Info! Золотая раздача, скачанное не засчитывается.
Торрент: Зарегистрирован [2013-08-13 12:35] · скачан: 50 раз
Статус: √ проверено
Размер: 7.76 GB
Как cкачать? Как скачать Механик через торрент | qTorrent

% Раздел Тема Автор DL S | L
Фильмы с авторской озвучкой [ 1.45 GB ] Механик / The Mechanic [2011 HDRip] [US] [AVO] killermax2013 Скачать
1 | 0
Фильмы 2011 [ 2.47 GB ] Механик / The Mechanic [2011 HDRip-AVC ] winchester00100010 Скачать
1 | 1
Фильмы (HD 720p, 1080p) (48-60 fps) [ 3.33 GB ] Механик / The Mechanic [2010 BDRip 720p ] Sub slaventi-69 Скачать
1 | 0
Классика зарубежного кино [ 1.45 GB ] Механик / The Mechanic [1972 BDRip многоголосый] Russian Mafia Скачать
1 | 0
Фильмы (Blu-ray, BD-Remux, HDDVD) [ 24.78 GB ] Механик / The Mechanic [2011 BD-Remux + Оригинал] Бумер Скачать
1 | 0
Фильмы (Blu-ray, BD-Remux, HDDVD) [ 28.21 GB ] Механик / The Mechanic [1972 BD-Remux многоголосыйОдноголосыйУкраинскийОригинал] Anonymous Скачать
1 | 0
Видео (iPhone, iPod Touch) [ 450 MB ] Механик / The Mechanic [2010 DVDRip] azagoth_666 Скачать
1 | 0

28-11-2019 20:33  

Отключить всю рекламу на сайте

13-08-2013 13:52 Механик Скачать торрент  

дайте скоростиpb.wtf



    Дорогой пользователь! Огромная просьба, поблагодарите релизера, оцените раздачу и оставьте свои комментарий, если Вы скачали Механик через торрент бесплатно! Внесите свою лепту в развитие PiratBit!
    Комментировать посты могут только пользователи прошедшие не сложную регистрацию
    Показать сообщения:    

    Механик через торрент
    Скачать бесплатно Механик
    Механик скачать торрент
    Механик смотреть онлайн
    Cкачать фильм Механик бесплатно
    Механик скачать торрент в хорошем качестве
    Механик смотреть онлайн бесплатно в хорошем качестве


    Вы не можете начинать темы
    Вы не можете отвечать на сообщения
    Вы не можете редактировать свои сообщения
    Вы не можете удалять свои сообщения
    Вы не можете голосовать в опросах
    Вы не можете прикреплять файлы к сообщениям
    Вы можете скачивать файлы