1 сезон

1 сезон

iTunes

1

КиноПоиск HD

Кинопоиск HD

iTunes

13

1 сезон

RePack

30

Новинка

ВАЖНО

ИГРА 18+

pack

RePack

MK11
pack

Легкие деньги

RePack

jed

RePack

fifa19

RePack

RDR2

RePack

NEED FOR SPEED™ PAYBACK

4 сезон

9 сезон

Бесстыжие 9 сезон

Все сериалы

все сериалы на PB.wtf

RePack

FAR CRY 5
  
Magnet ссылка

Мажестик / The Majestic (Фрэнк Дарабонт / Frank Darabont) [2001, США, Австралия, драма, WEB-DL 720p] Dub + MVO (ВГТРК / ТК "Россия") + DVO (С. Визгунов и Нина) + AVO (С. Визгунов) + Original Eng + Sub (rus, eng) pb.wtf

Мажестик через торрент pb.wtf

Размер: 5.67 GB | Добавлен: 7 лет 8 мес. назад | Торрент скачан:17 раз
Скачать  

13-08-2013 14:10 Мажестик Скачать торрент  

Мажестик / The Majestic
Год выпуска: 2001
Страна: США, Австралия
Жанр: семейный, мелодрама
Продолжительность: 2:32:41
Перевод: Профессиональный (дублированный)
Профессиональный (многоголосый закадровый) ВГТРК / ТК "Россия"
Профессиональный (двухголосый закадровый) Сергей Визгунов и Нина
Авторский (одноголосый закадровый) Сергей Визгунов
Субтитры: русские, английские

Режиссер: Фрэнк Дэрабонт / Frank Darabont

Бюджет: $72 000 000




В ролях: Джим Керри, Лори Холден, Мартин Ландау, Хэл Холбрук, Джефри ДеМанн, Боб Бэлабан, Брент Бриско, Рон Рифкин, Джерри Блэк, Дэвид Огден Стайерз,

Описание: История о человеке, ищущем самого себя. Питер, голливудский сценарист, случайно попадает в маленький городок Лоусон в Калифорнии: после автомобильной аварии он полностью теряет память.

Его принимают за пропавшего без вести героя Второй мировой. Питер, который сам поверил в это, берется за восстановление заброшенного городского кинотеатра. Невеста героя, которая ждала его несколько лет, также не замечает, что рядом с ней — двойник. Прекрасная жизнь основана на прекрасном обмане. Но правда, рано или поздно, откроется…


Качество: WEB-DLRip 720p
Формат: MKV
Видео кодек: AVC
Аудио кодек: AC3
Видео: 1276x720 23.976 fps,, 3 825 ~ 5 306 Kbps
Аудио#1: Russian 48 kHz, Dolby Digital, 3/2 (L,C,R,l,r) + LFE ch, ~384 kbps Dub
Аудио#2: Russian 48 kHz, Dolby Digital, 2/0 (L,R), ~192.00 kbps avg MVO (ВГТРК / ТК "Россия")
Аудио#3: Russian 48 kHz, Dolby Digital, 2/0 (L,R), ~192.00 kbps avg DVO (Сергей Визгунов и Нина)
Аудио#4: Russian 48 kHz, Dolby Digital, 2/0 (L,R), ~224.00 kbps avg AVO (Сергей Визгунов)
Аудио #5: English 48 kHz, Dolby Digital, 3/2 (L,C,R,l,r) + LFE ch, ~384 kbps




E:МажестикThe.Majestic.2001.720p.WEB-DL.DD5.1.H.264.mkv
General
Unique ID : 220064836055363011131289110387603661753 (0xA58EF21C7278C9398CDF9D0EFE09E3B9)
Complete name : E:киноМажестикThe.Majestic.2001.720p.WEB-DL.DD5.1.H.264.mkv
Format : Matroska
Format version : Version 4 / Version 2
File size : 5.67 GiB
Duration : 2h 32mn
Overall bit rate : 5 306 Kbps

Encoded date : UTC 2013-05-10 19:12:01
Writing application : mkvmerge v6.1.0 ('Old Devil') built on Mar 2 2013 14:32:37
Writing library : libebml v1.3.0 + libmatroska v1.4.0
Video #1
ID : 1
Format : AVC
Format/Info : Advanced Video Codec
Format profile : High@L3.1
Format settings, CABAC : No
Format settings, ReFrames : 2 frames
Codec ID : V_MPEG4/ISO/AVC
Duration : 2h 32mn
Bit rate : 3 825 Kbps
Width : 1 276 pixels
Height : 720 pixels
Display aspect ratio : 16:9
Frame rate mode : Constant
Frame rate : 23.976 fps
Color space : YUV
Chroma subsampling : 4:2:0
Bit depth : 8 bits
Scan type : Progressive
Bits/(Pixel*Frame) : 0.174
Stream size : 4.09 GiB (72%)
Language : English
Default : Yes
Forced : No
Color primaries : BT.709
Transfer characteristics : BT.709
Matrix coefficients : BT.709
Audio #2
ID : 2
Format : AC-3
Format/Info : Audio Coding 3
Mode extension : CM (complete main)
Format settings, Endianness : Big
Codec ID : A_AC3
Duration : 2h 32mn
Bit rate mode : Constant
Bit rate : 384 Kbps
Channel(s) : 6 channels
Channel positions : Front: L C R, Side: L R, LFE
Sampling rate : 48.0 KHz
Bit depth : 16 bits
Compression mode : Lossy
Stream size : 420 MiB (7%)
Title : Dub
Language : Russian
Default : Yes
Forced : No
Audio #3
ID : 3
Format : AC-3
Format/Info : Audio Coding 3
Mode extension : CM (complete main)
Format settings, Endianness : Big
Codec ID : A_AC3
Duration : 2h 32mn
Bit rate mode : Constant
Bit rate : 192 Kbps
Channel(s) : 2 channels
Channel positions : Front: L R
Sampling rate : 48.0 KHz
Bit depth : 16 bits
Compression mode : Lossy
Stream size : 210 MiB (4%)
Title : MVO VGTRK/Rossia
Language : Russian
Default : No
Forced : No
Audio #4
ID : 4
Format : AC-3
Format/Info : Audio Coding 3
Mode extension : CM (complete main)
Format settings, Endianness : Big
Codec ID : A_AC3
Duration : 2h 32mn
Bit rate mode : Constant
Bit rate : 192 Kbps
Channel(s) : 2 channels
Channel positions : Front: L R
Sampling rate : 48.0 KHz
Bit depth : 16 bits
Compression mode : Lossy
Stream size : 210 MiB (4%)
Title : DVO Vizgunov i Nina
Language : Russian
Default : No
Forced : No
Audio #5
ID : 5
Format : AC-3
Format/Info : Audio Coding 3
Mode extension : CM (complete main)
Format settings, Endianness : Big
Codec ID : A_AC3
Duration : 2h 32mn
Bit rate mode : Constant
Bit rate : 224 Kbps
Channel(s) : 2 channels
Channel positions : Front: L R
Sampling rate : 48.0 KHz
Bit depth : 16 bits
Compression mode : Lossy
Stream size : 245 MiB (4%)
Title : AVO Vizgunov
Language : Russian
Default : No
Forced : No
Audio #6
ID : 6
Format : AC-3
Format/Info : Audio Coding 3
Mode extension : CM (complete main)
Format settings, Endianness : Big
Codec ID : A_AC3
Duration : 2h 32mn
Bit rate mode : Constant
Bit rate : 384 Kbps
Channel(s) : 6 channels
Channel positions : Front: L C R, Side: L R, LFE
Sampling rate : 48.0 KHz
Bit depth : 16 bits
Compression mode : Lossy
Stream size : 420 MiB (7%)
Language : English
Default : No
Forced : No
Text #7
ID : 7
Format : UTF-8
Codec ID : S_TEXT/UTF8
Codec ID/Info : UTF-8 Plain Text
Language : Russian
Default : No
Forced : No
Text #8
ID : 8
Format : UTF-8
Codec ID : S_TEXT/UTF8
Codec ID/Info : UTF-8 Plain Text
Language : English
Default : No
Forced : No
Menu
00:00:00.000 : en:1
00:05:06.000 : en:2
00:07:40.000 : en:3
00:10:38.000 : en:4
00:13:35.000 : en:5
00:18:17.000 : en:6
00:24:09.000 : en:7
00:28:19.000 : en:8
00:34:10.000 : en:9
00:38:00.000 : en:10
00:41:30.000 : en:11
00:46:29.000 : en:12
00:49:46.000 : en:13
00:54:24.000 : en:14
00:59:01.000 : en:15
01:03:57.000 : en:16
01:07:29.000 : en:17
01:12:11.000 : en:18
01:15:30.000 : en:19
01:18:09.000 : en:20
01:24:06.000 : en:21
01:26:23.000 : en:22
01:30:17.000 : en:23
01:32:52.000 : en:24
01:36:12.000 : en:25
01:42:54.000 : en:26
01:46:50.000 : en:27
01:50:11.000 : en:28
01:53:07.000 : en:29
01:55:54.000 : en:30
01:59:42.000 : en:31
02:03:13.000 : en:32
02:07:04.000 : en:33
02:17:10.000 : en:34
02:19:35.000 : en:35
02:21:56.000 : en:36
02:27:34.000 : en:37


Мажестик скачать торрент


pb.wtf



Скачать Мажестик через торрент https://pic.kartinco.top/images/3/prx75g3tut.jpg Скачать фильм Мажестик через торрент бесплантно в хорошем качестве Описание: История о человеке, ищущем самого себя. Питер, голливудский сценарист, случайно попадает в маленький городок Лоусон в Калифорнии: ... 10 10 1
Info! Золотая раздача, скачанное не засчитывается.
Торрент: Зарегистрирован [2013-08-13 14:10] · скачан: 17 раз
Статус: √ проверено
Размер: 5.67 GB
Как cкачать? Как скачать Мажестик через торрент | UTorrent

% Раздел Тема Автор DL S | L
Фильмы [HD 720p, 1080p] (Хороший звук DUB, MVO) [ 8.94 GB ] Мажестик / The Majestic [2001 BDRip 720p] DUB MVO DVO AVO msltel Скачать
1 | 0
Фильмы [HD 720p, 1080p] (Хороший звук DUB, MVO) [ 15.94 GB ] Мажестик / The Majestic [2001 BDRip 1080p] DUB MVO DVO AVO _denis_100 Скачать
1 | 0
Фильмы [HD 720p, 1080p] (Хороший звук DUB, MVO) [ 7.76 GB ] Мажестик / The Majestic [2001 BDRip 720p] DUB _denis_100 Скачать
1 | 0
Фильмы 2001-2005 [ 1.46 GB ] Мажестик / The Majestic [2001 DVDRip лицензия] jora poker Скачать
1 | 0

28-11-2019 20:33  

Отключить всю рекламу на сайте

    Дорогой пользователь! Огромная просьба, поблагодарите релизера, оцените раздачу и оставьте свои комментарий, если Вы скачали Мажестик через торрент бесплатно! Внесите свою лепту в развитие PiratBit!
    Комментировать посты могут только пользователи прошедшие не сложную регистрацию
    Показать сообщения:    

    Мажестик через торрент
    Скачать бесплатно Мажестик
    Мажестик скачать торрент
    Мажестик смотреть онлайн
    Cкачать фильм Мажестик бесплатно
    Мажестик скачать торрент в хорошем качестве
    Мажестик смотреть онлайн бесплатно в хорошем качестве


    Вы не можете начинать темы
    Вы не можете отвечать на сообщения
    Вы не можете редактировать свои сообщения
    Вы не можете удалять свои сообщения
    Вы не можете голосовать в опросах
    Вы не можете прикреплять файлы к сообщениям
    Вы можете скачивать файлы