Мега распродажа FORZA HORIZON 4 ULTIMATE+ВСЕ DLC+ОНЛАЙН всего за 499р. 349 руб. (супер цена). Внимание количество ограничено!!!

iTunes

1+1

iTunes

мы

iTunes

1

iTunes

Чернобыль

1 сезон

Ральф против интернета

Лицензия

ПШазам

Лицензия

Игра престолов

Лицензия

30
pack

ВАЖНО

!!Акция!!

Alien_RageХит недели

RePack

Resident Evil 21

ИГРА 18+

pack

RePack

Metro:Exodus

!!Акция!!

Alien_Rage

RePack

fifa19

RePack

Assassins Creed: Odyssey

RePack

NEED FOR SPEED™ PAYBACK

3 сезон

9 сезон

Бесстыжие 9 сезон

Все сериалы

все сериалы на PB.wtf

RePack

FAR CRY 5
Ребята, катастрофически не хватает 7730р. для оплаты серверов за ИЮЛЬ (всвязи с блокировками трафик упал в 3 раза), 1-2р., выручайте.
  

Пришельцы на чердаке / Aliens in the Attic (Джон Шульц) [2009 г., Приключения, Семейный, Фэнтези, HDRip, Дубляж] pb.wtf

Пришельцы на чердаке через торрент pb.wtf

Размер: 1.37 GB | Добавлен: 6 лет назад | Торрент скачан:76 раз
Скачать  

14-08-2013 14:56 Пришельцы на чердаке Скачать торрент  

Пришельцы на чердаке / Aliens in the Attic
Год выпуска: 2009
Страна: США, Канада
Жанр: Приключения, Семейный, Фэнтези,
Продолжительность: 01:25:46
Перевод: Дубляж

Режиссер: Джон Шульц
Продюссер: Барри Джозефсон, Марк С. Фишер, Джо Хартвик мл
Сценарий: Марк Бертон, Адам Ф. Голдберг

Бюджет: $45 000 000
Премьера в мире: 30 июля 2009

рекомендуется присутствие родителей


В ролях: Картер Дженкинс, Остин Роберт Батлер, Эшли Боетчер, Эшли Тиздейл, Генри Янг (II), Ригэн Янг, Дорис Робертс, Роберт Хоффман, Кевин Нилон, Джиллиан Вигман, Энди Рихтер, Тим Медоуз, Мэйлез Джо, Меган Паркер, Мэгги Ванденберг, Даг МакМиллан,

Описание: Семейство Пирсонов переезжает на летние каникулы в свой загородный домик в штате Мэн, не подозревая о появлении на чердаке новых и очень необычных соседей. Нет, это не летучие мыши, не бомжи и уж точно не Кентервильское привидение. Маленький уголок рая посреди зеленых полей Новой Англии был выбран в качестве базы для вторжения на нашу родную Землю коварными пришельцами из космоса. Пришелец-зирконианец по имени Спаркс (ему всего лишь 204 года, он еще совсем ребенок) становится другом юных Пирсонов и предлагает им сделать выбор: отправиться в космос или быть уничтоженными вместе со всеми остальными обитателями планеты. После недолгих раздумий у Пирсонов появляется третья альтернатива, быстро меняющая планы зирконианцев.

Качество: HDRip
Формат: AVI
Видео кодек: XviD
Аудио кодек: AC3
Видео: AVC, 720x384 (1.875), 23.976 fps, 1 893 Kbps (0.286 bit/pixel)
Аудио#1: AC-3, 48.0 KHz, 6 ch, 384 Kbps, CBR
Релиз от: xGhost




General
Unique ID : 214760493255517679509182906990636245384 (0xA1915DD1D8197B95ABFFFDB425032188)
Complete name : D:x264Prishel'cy.Na.Cherdake.2009.D.x264.HDRip.Rus.1400MB.mkv
Format : Matroska
Format version : Version 2
File size : 1.37 GiB
Duration : 1h 25mn
Overall bit rate : 2 278 Kbps
Encoded date : UTC 2013-08-13 15:08:53
Writing application : mkvmerge v6.2.0 ('Promised Land') built on Apr 28 2013 12:22:01
Writing library : libebml v1.3.0 + libmatroska v1.4.0

Video
ID : 1
Format : AVC
Format/Info : Advanced Video Codec
Format profile : High@L3.0
Format settings, CABAC : Yes
Format settings, ReFrames : 12 frames
Codec ID : V_MPEG4/ISO/AVC
Duration : 1h 25mn
Bit rate : 1 893 Kbps
Width : 720 pixels
Height : 384 pixels
Display aspect ratio : 1.85:1
Frame rate : 23.976 fps
Color space : YUV
Chroma subsampling : 4:2:0
Bit depth : 8 bits
Scan type : Progressive
Bits/(Pixel*Frame) : 0.286
Stream size : 1.11 GiB (81%)
Writing library : x264 core 133 r2334 a3ac64b
Encoding settings : cabac=1 / ref=12 / deblock=1:0:0 / analyse=0x3:0x113 / me=umh / subme=7 / psy=1 / psy_rd=1.00:0.00 / mixed_ref=1 / me_range=32 / chroma_me=1 / trellis=1 / 8x8dct=1 / cqm=0 / deadzone=21,11 / fast_pskip=1 / chroma_qp_offset=-2 / threads=6 / lookahead_threads=1 / sliced_threads=0 / nr=0 / decimate=1 / interlaced=0 / bluray_compat=0 / constrained_intra=0 / bframes=3 / b_pyramid=2 / b_adapt=1 / b_bias=0 / direct=1 / weightb=1 / open_gop=0 / weightp=2 / keyint=240 / keyint_min=23 / scenecut=40 / intra_refresh=0 / rc_lookahead=40 / rc=2pass / mbtree=1 / bitrate=1893 / ratetol=1.0 / qcomp=0.60 / qpmin=0 / qpmax=69 / qpstep=4 / cplxblur=20.0 / qblur=0.5 / ip_ratio=1.40 / aq=1:1.00
Default : Yes
Forced : No

Audio
ID : 2
Format : AC-3
Format/Info : Audio Coding 3
Mode extension : CM (complete main)
Format settings, Endianness : Big
Codec ID : A_AC3
Duration : 1h 25mn
Bit rate mode : Constant
Bit rate : 384 Kbps
Channel(s) : 6 channels
Channel positions : Front: L C R, Side: L R, LFE
Sampling rate : 48.0 KHz
Bit depth : 16 bits
Compression mode : Lossy
Stream size : 236 MiB (17%)
Default : Yes
Forced : No

pb.wtf



Скачать Пришельцы на чердаке через торрент http://i015.radikal.ru/0910/64/f699437ebb12.jpg Скачать фильм Пришельцы на чердаке через торрент бесплантно в хорошем качестве Описание: Семейство Пирсонов переезжает на летние каникулы в свой загородный домик в штате Мэн, не подозревая о появлении на чердаке новых ... 9.9 10 8
Info! Золотая раздача, скачанное не засчитывается.
Торрент: Зарегистрирован [2013-08-14 14:56] · скачан: 76 раз
Статус: √ проверено
Размер: 1.37 GB
Как cкачать? Как скачать Пришельцы на чердаке через торрент | qTorrent

% Раздел Тема Автор DL S | L
Фильмы 2009 [ 746 MB ] Пришельцы на чердаке / Aliens in the Attic [2009 HDRip + Оригинал] CrazyPatrik Скачать
1 | 0
Фильмы [HD 720p, 1080p] (Хороший звук DUB, MVO) [ 4.82 GB ] Пришельцы на чердаке / Aliens in the Attic [2009 HDRip] solambo Скачать
1 | 0
Фильмы 2009 [ 1.46 GB ] Пришельцы на чердаке / Aliens in the Attic [2009 BDRip лицензия] Virtus Скачать
1 | 0
Фильмы 2009 [ 1.37 GB ] Пришельцы на чердаке / Aliens in the Attic [2009 DVDRip] DEVI Скачать
1 | 0


>> Регистрируемся здесь <<






Отзывы и комментарии о схеме читаем и пишем здесь: ---> Отзывы и комментарии о схеме

Новые благодарочки в телеграм довольных пользователей:
скриншот   скриншот   скриншот   скриншот   скриншот
    Дорогой пользователь! Огромная просьба, поблагодарите релизера, оцените раздачу и оставьте свои комментарий, если Вы скачали Пришельцы на чердаке через торрент бесплатно! Внесите свою лепту в развитие PiratBit!
    Комментировать посты могут только пользователи прошедшие не сложную регистрацию
    Показать сообщения:    

    Пришельцы на чердаке через торрент
    Скачать бесплатно Пришельцы на чердаке
    Пришельцы на чердаке скачать торрент
    Пришельцы на чердаке смотреть онлайн
    Cкачать фильм Пришельцы на чердаке бесплатно
    Пришельцы на чердаке скачать торрент в хорошем качестве
    Пришельцы на чердаке смотреть онлайн бесплатно в хорошем качестве


    Вы не можете начинать темы
    Вы не можете отвечать на сообщения
    Вы не можете редактировать свои сообщения
    Вы не можете удалять свои сообщения
    Вы не можете голосовать в опросах
    Вы не можете прикреплять файлы к сообщениям
    Вы можете скачивать файлы