Ссылка на приватное зеркало всего за 1$. Внимание количество ограничено!!!

iTunes

iTunes

iTunes

1

iTunes

iTunes

iTunes

WEBRip

iTunes

30
pack

$ от Little Big

ВАЖНО

!!Акция!!

Alien_RageХит недели

RePack

Resident Evil 21

ИГРА 18+

pack

RePack

jed

!!Акция!!

Alien_Rage

RePack

fifa19

RePack

Assassins Creed: Odyssey

RePack

NEED FOR SPEED™ PAYBACK

4 сезон

9 сезон

Бесстыжие 9 сезон

Все сериалы

все сериалы на PB.wtf

RePack

FAR CRY 5
  

Крутой Уокер / Walker, Texas Ranger (Вирджил В. Фогель /Virgil W. Vogel) [1993, Боевик, DVDRip] [AVO] (Леонид Володарский) pb.wtf

Крутой Уокер через торрент pb.wtf

Размер: 875 MB | Добавлен: 6 лет 11 мес. назад | Торрент скачан:57 раз
Скачать  

14-08-2013 17:21 Крутой Уокер Скачать торрент  

Крутой Уокер / Walker, Texas Ranger
Год выпуска: 1993
Страна: США
Жанр: Боевик
Продолжительность: 01:30:28
Перевод: Авторский (одноголосный) [Леонид Володарский]

Режиссер: Вирджил В. Фогель /Virgil W. Vogel

В ролях: Чак Норрис, Кларенс Гильярд, Гэйлард Сартейн, Шири Дж.Уилсон, Флойд «Ред Кроу» Уэстермен, Маршалл Р. Тиг, Илья Баскин, Рода Гемигнани, Джеймс Друри

Описание: Переживший серьезную личную драму техасский рэйнджер Уокер (в исполнении Чака Норриса) с усталым видом без труда расправляется с несколькими бандюгами кряду, с усталым видом защищает изнасилованную девушку от других бандюг и все с тем же усталым видом, а также с помощью напарника, чернокожего полицейского Триветта, разгадывает замысел главаря команды профессиональных убийц и грабителей, задумавшего взять содержимое сейфов четырех банков одновременно.



Качество: DVDRip
Формат: AVI
Видео кодек: DivX
Аудио кодек: AC3
Видео: 720x528 (1.36:1), 25 fps, DivX Codec 5.x or 6.x ~1150 kbps avg, 0.12 bit/pixel
Аудио: AC3 Dolby Digital, 48000 Hz, 2/0 (mono) ch, 192.00 kbps avg
Дорожка с Л. Володарским синхронизирована, ремастирована и наложена ale_x2008 при помощи Adobe Audition, Sony Vegas и VirtualDubMod под данный релиз.
Источник звуковой дорожки - VHSRip
E:INTERNETWalker, Texas Ranger.1993.DVDRip.[AVO_Volodarsky].avi
General
Complete name : E:INTERNETWalker, Texas Ranger.1993.DVDRip.[AVO_Volodarsky].avi
Format : AVI
Format/Info : Audio Video Interleave
File size : 875 MiB
Duration : 1h 30mn
Overall bit rate : 1 352 Kbps
Writing application : VirtualDubMod 1.5.10.3 (build 2550/release)
Writing library : VirtualDubMod build 2550/release
Video #0
ID : 0
Format : MPEG-4 Visual
Format settings, BVOP : 1
Format settings, QPel : No
Format settings, GMC : No warppoints
Format settings, Matrix : Default (H.263)
Muxing mode : Packed bitstream
Codec ID : DX50
Codec ID/Hint : DivX 5
Duration : 1h 30mn
Bit rate : 1 150 Kbps
Width : 720 pixels
Height : 528 pixels
Display aspect ratio : 4:3
Frame rate : 25.000 fps
Color space : YUV
Chroma subsampling : 4:2:0
Bit depth : 8 bits
Scan type : Progressive
Compression mode : Lossy
Bits/(Pixel*Frame) : 0.121
Stream size : 745 MiB (85%)
Writing library : DivX 6.2.5 (UTC 2006-07)
Audio #1
ID : 1
Format : AC-3
Format/Info : Audio Coding 3
Mode extension : CM (complete main)
Format settings, Endianness : Big
Codec ID : 2000
Duration : 1h 30mn
Bit rate mode : Constant
Bit rate : 192 Kbps
Channel(s) : 2 channels
Channel positions : Front: L R
Sampling rate : 48.0 KHz
Bit depth : 16 bits
Compression mode : Lossy
Stream size : 124 MiB (14%)
Alignment : Split accross interleaves
Interleave, duration : 40 ms (1.00 video frame)
Interleave, preload duration : 500 ms
pb.wtf



Скачать Крутой Уокер через торрент http://s42.radikal.ru/i095/1308/2f/9a6d8d67b8e6.jpg Скачать фильм Крутой Уокер через торрент бесплантно в хорошем качестве Описание: Переживший серьезную личную драму техасский рэйнджер Уокер (в исполнении Чака Норриса) с усталым видом без труда расправляется с ... 9.1 10 13
Info! Золотая раздача, скачанное не засчитывается.
Торрент: Зарегистрирован [2013-08-14 17:21] · скачан: 57 раз
Статус: √ проверено
Размер: 875 MB
Как cкачать? Как скачать Крутой Уокер через торрент | qTorrent

% Раздел Тема Автор DL S | L
Зарубежные сериалы [ 78.81 GB ] Крутой Уокер правосудие по-техасски / Walker Texas Ranger / Сезон: 01-09 / Серии: 01-196 из 196 [1993-2001 TVRip] [DVO] killermax2013 Скачать
1 | 0

28-11-2019 20:33  

Отключить всю рекламу на сайте

14-08-2013 22:50 Крутой Уокер Скачать торрент  

фильм детства)pb.wtf



15-08-2013 08:02 Крутой Уокер Скачать торрент  

ну не то чтобы совсем детства... однако пересмотрю с удовольствием, спасибо за раздачуpb.wtf



15-08-2013 08:19 Крутой Уокер Скачать торрент  

Да, детство ёпт, да, но приятно, Спасибоpb.wtf



15-08-2013 11:26 Крутой Уокер Скачать торрент  

Всем приятно только никто не скачалpb.wtf



    Дорогой пользователь! Огромная просьба, поблагодарите релизера, оцените раздачу и оставьте свои комментарий, если Вы скачали Крутой Уокер через торрент бесплатно! Внесите свою лепту в развитие PiratBit!
    Комментировать посты могут только пользователи прошедшие не сложную регистрацию
    Показать сообщения:    

    Крутой Уокер через торрент
    Скачать бесплатно Крутой Уокер
    Крутой Уокер скачать торрент
    Крутой Уокер смотреть онлайн
    Cкачать фильм Крутой Уокер бесплатно
    Крутой Уокер скачать торрент в хорошем качестве
    Крутой Уокер смотреть онлайн бесплатно в хорошем качестве


    Вы не можете начинать темы
    Вы не можете отвечать на сообщения
    Вы не можете редактировать свои сообщения
    Вы не можете удалять свои сообщения
    Вы не можете голосовать в опросах
    Вы не можете прикреплять файлы к сообщениям
    Вы можете скачивать файлы