1 сезон

1 сезон

iTunes

1

КиноПоиск HD

Кинопоиск HD

iTunes

13

1 сезон

RePack

30

Новинка

ВАЖНО

ИГРА 18+

pack

RePack

MK11
pack

Легкие деньги

RePack

jed

RePack

fifa19

RePack

RDR2

RePack

NEED FOR SPEED™ PAYBACK

4 сезон

9 сезон

Бесстыжие 9 сезон

Все сериалы

все сериалы на PB.wtf

RePack

FAR CRY 5
  
Magnet ссылка

Триумф / The Greatest Game Ever Played (Билл Пэкстон) [2005 г., история, спорт, драма, BDRip 720p, MVO + Original Eng + Sub Rus Eng] pb.wtf

Триумф через торрент pb.wtf

Размер: 6.72 GB | Добавлен: 7 лет 7 мес. назад | Торрент скачан:46 раз
Скачать  

15-08-2013 11:32 Триумф Скачать торрент  

Триумф / The Greatest Game Ever Played Основано на реальных событиях.
«Сильнейших побеждают только достойнейшие.»

Год выпуска: 2005
Страна: США
Жанр: история, спорт, драма, семейный
Продолжительность: 02:00:33
Перевод: Профессиональный многоголосый (закадровый)
Субтитры: русские, английские

Режиссер: Билл Пэкстон



В ролях: Шайа ЛаБаф, Марни МакПайл, Стивен Диллэйн, Джош Флиттер, Питер Фёрт, Пейтон Лист, Элиас Котеас, Лен Кариу, Стивен Маркус, Джеймс Пэкстон,

Описание: Спортивная статистика тщательно регистрирует все рекорды. Но лишь живая память способна сохранить драгоценные мгновения триумфа человеческой воли к победе. Ведь сухие цифры на бумаге никогда не передадут того ощущения чуда, которое вызывают некоторые поистине фантастические достижения.

А то, что произошло на первенстве по гольфу US Open в 1913 году, уместнее назвать именно чудом. Тогда никому не известный 20-летний паренек Франсис Уиме, считавшийся аутсайдером, наголову разгромил слывшего абсолютно непобедимым чемпиона Гарри Вардона. Причем разгромил элегантно, стильно и не без чувства юмора.

Этой, одной из ярчайших страниц в истории гольфа, названной современниками битвой Давида и Голиафа, и посвящен данный фильм


Качество: BDRip 720p
Формат: MKV
Видео кодек: AVC
Аудио кодек: AC3 DTS
Видео: 1 280 х 688 1.85:1 23.976 fps 6 278 Kbps~7 983 Kbps
Аудио#1: Russian 48.0 KHz 2 ch 192 Kbps 16 bits
Аудио#2: English DTS 48.0 KHz 6 ch 1 509 Kbps 24 bits




E:Триумф Величайшая игра всех времен The Greatest Game Ever Played[720p] The Greatest Game Ever Played (2005).mkv
General
Unique ID : 240379635032172255266036783263370609944 (0xB4D76F07CF9179F88A175F137E2A8518)
Complete name : E:киноТриумф Величайшая игра всех времен The Greatest Game Ever Played[720p] The Greatest Game Ever Played (2005).mkv
Format : Matroska
Format version : Version 1
File size : 6.72 GiB
Duration : 2h 0mn
Overall bit rate : 7 983 Kbps
Movie name : SiNNERS
Encoded date : UTC 2009-06-18 17:01:47
Writing application : mkvmerge v2.4.0 ('Fumbling Towards Ecstasy') built on Oct 11 2008 20:13:15
Writing library : libebml v0.7.7 + libmatroska v0.8.1
Video #1
ID : 1
Format : AVC
Format/Info : Advanced Video Codec
Format profile : High@L3.1
Format settings, CABAC : Yes
Format settings, ReFrames : 5 frames
Codec ID : V_MPEG4/ISO/AVC
Duration : 2h 0mn
Bit rate : 6 278 Kbps
Width : 1 280 pixels
Height : 688 pixels
Display aspect ratio : 1.85:1
Frame rate mode : Constant
Frame rate : 23.976 fps
Color space : YUV
Chroma subsampling : 4:2:0
Bit depth : 8 bits
Scan type : Progressive
Bits/(Pixel*Frame) : 0.297
Stream size : 5.16 GiB (77%)
Writing library : x264 core 67 r1165 6841c5e
Encoding settings : cabac=1 / ref=5 / deblock=1:0:0 / analyse=0x3:0x113 / me=umh / subme=7 / psy_rd=1.0:0.0 / mixed_ref=1 / me_range=16 / chroma_me=1 / trellis=1 / 8x8dct=1 / cqm=0 / deadzone=21,11 / chroma_qp_offset=-2 / threads=6 / nr=0 / decimate=1 / mbaff=0 / bframes=3 / b_pyramid=1 / b_adapt=1 / b_bias=0 / direct=1 / wpredb=1 / keyint=250 / keyint_min=25 / scenecut=40 / rc=2pass / bitrate=6278 / ratetol=1.0 / qcomp=0.60 / qpmin=10 / qpmax=51 / qpstep=4 / cplxblur=20.0 / qblur=0.5 / ip_ratio=1.40 / pb_ratio=1.30 / aq=1:1.00
Language : English
Default : Yes
Forced : No
Audio #2
ID : 2
Format : AC-3
Format/Info : Audio Coding 3
Mode extension : CM (complete main)
Format settings, Endianness : Big
Codec ID : A_AC3
Duration : 2h 0mn
Bit rate mode : Constant
Bit rate : 192 Kbps
Channel(s) : 2 channels
Channel positions : Front: L R
Sampling rate : 48.0 KHz
Bit depth : 16 bits
Compression mode : Lossy
Stream size : 166 MiB (2%)
Title : VO (R5) DD 2.0 @ 192 kbps
Language : Russian
Default : Yes
Forced : No
Audio #3
ID : 3
Format : DTS
Format/Info : Digital Theater Systems
Mode : 16
Format settings, Endianness : Big
Codec ID : A_DTS
Duration : 2h 0mn
Bit rate mode : Constant
Bit rate : 1 509 Kbps
Channel(s) : 6 channels
Channel positions : Front: L C R, Side: L R, LFE
Sampling rate : 48.0 KHz
Bit depth : 24 bits
Compression mode : Lossy
Stream size : 1.27 GiB (19%)
Title : DTS 5.1 @ 1.5 Mbps
Language : English
Default : No
Forced : No
Text #4
ID : 4
Format : UTF-8
Codec ID : S_TEXT/UTF8
Codec ID/Info : UTF-8 Plain Text
Language : Russian
Default : Yes
Forced : No
Text #5
ID : 5
Format : UTF-8
Codec ID : S_TEXT/UTF8
Codec ID/Info : UTF-8 Plain Text
Language : English
Default : No
Forced : No


Триумф скачать торрент


pb.wtf



Скачать Триумф через торрент https://pic.kartinco.top/images/3/asodzj4cis.jpg Скачать фильм Триумф через торрент бесплантно в хорошем качестве Описание: Спортивная статистика тщательно регистрирует все рекорды. Но лишь живая память способна сохранить драгоценные мгновения триумфа ... 10 10 2
Info! Золотая раздача, скачанное не засчитывается.
Торрент: Зарегистрирован [2013-08-15 11:32] · скачан: 46 раз
Статус: √ проверено
Размер: 6.72 GB
Как cкачать? Как скачать Триумф через торрент | UTorrent

% Раздел Тема Автор DL S | L
Фильмы [HD 720p, 1080p] (Хороший звук DUB, MVO) [ 13.06 GB ] Триумф / The Greatest Game Ever Played [2005 история BDRip 1080p by msltel] MVO msltel Скачать
1 | 0
Фильмы [HD 720p, 1080p] (Хороший звук DUB, MVO) [ 4.76 GB ] Триумф / The Greatest Game Ever Played [2005 история BDRip 720p by msltel] MVO msltel Скачать
1 | 0
Фильмы 2001-2005 [ 2.18 GB ] Триумф / The Greatest Game Ever Played [2005 история BDRip MVO лицензия] lev1244v Скачать
1 | 0
Фильмы [HD 720p, 1080p] (Хороший звук DUB, MVO) [ 6.72 GB ] Триумф / Greatest Game Ever Played The [2005 история BDRip ] SibFrost Скачать
1 | 0

28-11-2019 20:33  

Отключить всю рекламу на сайте

    Дорогой пользователь! Огромная просьба, поблагодарите релизера, оцените раздачу и оставьте свои комментарий, если Вы скачали Триумф через торрент бесплатно! Внесите свою лепту в развитие PiratBit!
    Комментировать посты могут только пользователи прошедшие не сложную регистрацию
    Показать сообщения:    

    Триумф через торрент
    Скачать бесплатно Триумф
    Триумф скачать торрент
    Триумф смотреть онлайн
    Cкачать фильм Триумф бесплатно
    Триумф скачать торрент в хорошем качестве
    Триумф смотреть онлайн бесплатно в хорошем качестве


    Вы не можете начинать темы
    Вы не можете отвечать на сообщения
    Вы не можете редактировать свои сообщения
    Вы не можете удалять свои сообщения
    Вы не можете голосовать в опросах
    Вы не можете прикреплять файлы к сообщениям
    Вы можете скачивать файлы