Архив 81

1 сезон

Добыча

Дубляж

Тед Лассо

3 сезон

Тор

1 сезон

13 клиническая

3 сезон

Жестокая ночь

Дубляж

Одни из нас

1s 9e

Premium

Extended

Deluxe

Deluxe

pack

Рекомендуем

30

Repack

ВАЖНО

ВАЖНО

Ghostwire

Пиратка

jed

RePack

nioh2

RePack

RDR2

RePack

NEED FOR SPEED™ PAYBACK

RePack

скачать торрент

Кинопоиск HD

Острые козырьки 6 сезон

6 сезон

FAR CRY 6

RePack

скачать торрент

Лицензия

скачать торрент

MVO

1

1 сезон

скачать торрент

1 сезон

скачать торрент

Лицензия

  

Совсем как женщина / Just Like a Woman (Рашид Бушареб / Rachid Bouchareb) [ 2012 , Великобритания, США, Франция , драма , WEB-DLRip , DVO ]

Совсем как женщина через торрент pb.wtf

Размер: 1.37 GB | Добавлен: 9 лет 7 мес. назад | Торрент скачан:68 раз
Смотреть онлайн | Скачать | Поддержите нас   

16-08-2013 05:50 Совсем как женщина Скачать торрент  

Совсем как женщина / Just Like a Woman

Слоган: «two friends - one journey - no limits»
Год выпуска: 2012
Страна: Великобритания, США, Франция
Жанр: драма
Продолжительность: 01:27:37
Перевод: Любительский (двухголосый) [Hamsterstudio] перевод [kon2011]

Режиссер: Рашид Бушареб / Rachid Bouchareb
В ролях: Сиенна Миллер (Marilyn), Голшифте Фарахани (Mona), Бахар Сумех (Soha), Тим Гини (George), Рошди Зем (Mourad), Шафия Будраа (La mère de Mourad), Джесси Харпер (Harvey), Саид Бадрия (Tarek), Усман Элли (Ousman), Кимино Чимино (Belly Dancer), Ричард Котовски (Homeless Man), Майкл Элерс (Peter)
Описание: Героини знакомятся во время путешествия из Чикаго в Мексику. Обе пытаются зализать раны после неудачных браков. При этом героиня Миллер питает тайную страсть к танцу живота.
Рейтинг
kinopoisk.ru: 5.800 (14)
imdb.com: 5.50 (530)
MPAA: R - Лицам до 17 лет обязательно присутствие взрослого
Мировая премьера: 14 декабря 2012

  • Качество: WEB-DLRip
  • Формат: AVI
  • Видео кодек: XviD
  • Аудио кодек: AC3
  • Видео: XviD, 720x304 (2.35:1), 1839 kbps, 23,976 fps, 0,351 bpp
  • Аудио: AC3 / 5.1 / 48 kHz / 384 kbps / 16 bit
    Format : AVI
    Format/Info : Audio Video Interleave
    File size : 1.37 GiB
    Duration : 1h 27mn
    Overall bit rate : 2 233 Kbps
    Writing application : VirtualDubMod 1.5.10.2 (build 2540/release)
    Writing library : VirtualDubMod build 2540/release

    Video
    ID : 0
    Format : MPEG-4 Visual
    Format profile : Advanced [email protected]
    Format settings, BVOP : 2
    Format settings, QPel : No
    Format settings, GMC : No warppoints
    Format settings, Matrix : Default (MPEG)
    Codec ID : XVID
    Codec ID/Hint : XviD
    Duration : 1h 27mn
    Bit rate : 1 840 Kbps
    Width : 720 pixels
    Height : 304 pixels
    Display aspect ratio : 2.35:1
    Frame rate : 23.976 fps
    Color space : YUV
    Chroma subsampling : 4:2:0
    Bit depth : 8 bits
    Scan type : Progressive
    Compression mode : Lossy
    Bits/(Pixel*Frame) : 0.351
    Stream size : 1.13 GiB (82%)
    Writing library : XviD 1.2.1 (UTC 2008-12-04)

    Audio
    ID : 1
    Format : AC-3
    Format/Info : Audio Coding 3
    Mode extension : CM (complete main)
    Codec ID : 2000
    Duration : 1h 27mn
    Bit rate mode : Constant
    Bit rate : 384 Kbps
    Channel(s) : 6 channels
    Channel positions : Front: L C R, Side: L R, LFE
    Sampling rate : 48.0 KHz
    Bit depth : 16 bits
    Compression mode : Lossy
    Stream size : 241 MiB (17%)
    Alignment : Split accross interleaves
    Interleave, duration : 42 ms (1.00 video frame)
    Interleave, preload duration : 500 ms
    Сэмпл / Трейлер



  • Скачать Совсем как женщина через торрент http://i2.imageban.ru/out/2013/08/16/c2eacb93490052c32690b9032908f414.png Скачать, смотреть онлайн Совсем как женщина бесплантно в хорошем качестве Описание: Героини знакомятся во время путешествия из Чикаго в Мексику. Обе пытаются зализать раны после неудачных браков. При этом героиня ... 8.9 10 7
    Info! Золотая раздача, скачанное не засчитывается.
    Торрент: Зарегистрирован [2013-08-16 05:50] · скачан: 68 раз
    Статус: √ проверено
    Размер: 1.37 GB
    Как cкачать? Как скачать Совсем как женщина через торрент | UTorrent

    28-11-2019 20:33  


    Отключить вcю реклaмy на сайте, в т.ч. и в плеере онлайн просмотра!

      Дорогой пользователь! Огромная просьба, поблагодарите релизера, оцените раздачу и оставьте свои комментарий, если Вы скачали Совсем как женщина через торрент бесплатно!!
      Комментировать посты могут только пользователи прошедшие не сложную регистрацию
      Показать сообщения:    


      Совсем как женщина через торрент
      Скачать бесплатно Совсем как женщина
      Совсем как женщина скачать торрент
      Совсем как женщина смотреть онлайн
      Cкачать фильм Совсем как женщина бесплатно
      Совсем как женщина скачать торрент в хорошем качестве
      Совсем как женщина смотреть онлайн бесплатно в хорошем качестве
      Вы не можете начинать темы
      Вы не можете отвечать на сообщения
      Вы не можете редактировать свои сообщения
      Вы не можете удалять свои сообщения
      Вы не можете голосовать в опросах
      Вы не можете прикреплять файлы к сообщениям
      Вы можете скачивать файлы
      Совсем как женщина / Just Like a Woman [ 2012 , Великобритания, США, Франция , драма , WEB-DLRip , DVO ] смотреть онлайн, скачать торрент picoco.icu