Ссылка на приватное зеркало нашего сайта всего за 1$. Внимание количество ограничено!!!

2 сезон

iTunes

1 сезон

1

iTunes

iTunes

iTunes

1 сезон

RePack

30

ИГРА 18+

pack

ВАЖНО

!!Акция!!

Alien_RageХит недели

RePack

MK11
pack

Забери бонус

RePack

jed

!!Акция!!

Alien_Rage

RePack

fifa19

RePack

Assassins Creed: Odyssey

RePack

NEED FOR SPEED™ PAYBACK

4 сезон

9 сезон

Бесстыжие 9 сезон

Все сериалы

все сериалы на PB.wtf

RePack

FAR CRY 5
  

Джонни Д / Public Enemies (Майкл Манн) [2009 г., драма, криминал, биография, история, BDRip 1080p, Дубляж + Оригинал] pb.wtf

Джонни Д через торрент pb.wtf

Размер: 7.76 GB | Добавлен: 7 лет 2 мес. назад | Торрент скачан:166 раз
Скачать  

16-08-2013 19:07 Джонни Д Скачать торрент  

Джонни Д. / Public Enemies
Год выпуска: 2009
Страна: США
Жанр: драма, криминал, биография, история,
Продолжительность: 02:19:43
Перевод: Дубляж + Оригинал
Субтитры: Русские, Английские

Режиссер: Майкл Манн

В ролях: Джонни Депп, Кристиан Бэйл, Джеймс Руссо, Дэвид Уэнэм, Кристиан Столте, Джейсон Кларк, Джон Джудд, Стивен Дорфф, Роберт Майкл Виё, Уэсли Уолкер,

Описание: Сюжет фильма повествует о легендарном грабителе банков Джоне Диллинджере. Дерзкие нападения сделали его выдающимся героем для всех угнетенных и главной мишенью для лучшего агента ФБР Мелвина Первиса и директора бюро Джона Эдгара Гувера. Никто не мог остановить банду Диллинджера. Ни одна тюрьма не могла его удержать. Обаяние и отчаянные побеги прославляли преступника в обществе, считавшем банки главной причиной Великой депрессии.
В то время, как приключения лихой банды, к которой примкнули Малыш Нельсон и Элвин Карпис, вдохновляли обозленных граждан, Гувер решил воспользоваться случаем и превратить Бюро расследований в главную правоохранительную организацию страны — ФБР. Он сделал Диллинджера самым опасным врагом Америки, а спасителем нарек Первиса, гордость Федерального бюро.

Качество: BDRip 1080p
Формат: MKV
Видео кодек: H.264
Аудио кодек: AC3
Видео: (1920x800), 6673 Kbps, 23.976 fps
Аудио#1: AC-3, 6 ch, 640 kbps (Rus) 48.0 KHz
Аудио#2: AC-3, 6 ch, 640 kbps (Eng) 48.0 KHz

Общее
Уникальный идентификатор : 173674880924327838341983327403910098374 (0x82A890BC7B5BA480BEFC50D31EEBEDC6)
Полное имя : Джонни Д.2009.BDRip.1080p.Rus.Eng.mkv
Формат : Matroska
Версия формата : Version 2
Размер файла : 7,76 Гбайт
Продолжительность : 2 ч. 19 м.
Общий поток : 7953 Кбит/сек
Название фильма : Джонни Д.2009
Дата кодирования : UTC 2013-01-01 16:31:01
Программа кодирования : mkvmerge v5.8.0 ('No Sleep / Pillow') built on Sep 2 2012 15:37:04
Библиотека кодирования : libebml v1.2.3 + libmatroska v1.3.0

Видео
Идентификатор : 1
Формат : AVC
Формат/Информация : Advanced Video Codec
Профиль формата : High@L4.1
Параметр CABAC формата : Да
Параметр ReFrames формата : 5 кадров
Идентификатор кодека : V_MPEG4/ISO/AVC
Продолжительность : 2 ч. 19 м.
Битрейт : 6673 Кбит/сек
Ширина : 1920 пикселей
Высота : 800 пикселей
Соотношение сторон : 2,40:1
Режим частоты кадров : Постоянный
Частота кадров : 23,976 кадра/сек
Цветовое пространство : YUV
Субдискретизация насыщенности : 4:2:0
Битовая глубина : 8 бит
Тип развёртки : Прогрессивная
Бит/(Пиксели*Кадры) : 0.181
Размер потока : 6,36 Гбайт (82%)
Заголовок : Rip by Boriy
Библиотека кодирования : x264 core 129 r2230 1cffe9f
Настройки программы : cabac=1 / ref=5 / deblock=1:0:0 / analyse=0x3:0x113 / me=umh / subme=10 / psy=1 / psy_rd=1.00:0.10 / mixed_ref=1 / me_range=32 / chroma_me=1 / trellis=2 / 8x8dct=1 / cqm=0 / deadzone=21,11 / fast_pskip=0 / chroma_qp_offset=-2 / threads=12 / lookahead_threads=2 / sliced_threads=0 / nr=0 / decimate=0 / interlaced=0 / bluray_compat=0 / constrained_intra=0 / bframes=5 / b_pyramid=2 / b_adapt=2 / b_bias=0 / direct=3 / weightb=1 / open_gop=0 / weightp=2 / keyint=240 / keyint_min=23 / scenecut=40 / intra_refresh=0 / rc=2pass / mbtree=0 / bitrate=6673 / ratetol=1.0 / qcomp=0.60 / qpmin=0 / qpmax=69 / qpstep=4 / cplxblur=20.0 / qblur=0.5 / ip_ratio=1.40 / pb_ratio=1.30 / aq=1:0.80
Язык : English
Default : Да
Forced : Нет

Аудио #1
Идентификатор : 2
Формат : AC-3
Формат/Информация : Audio Coding 3
Расширение режима : CM (complete main)
Параметр Endianness формата : Big
Идентификатор кодека : A_AC3
Продолжительность : 2 ч. 19 м.
Вид битрейта : Постоянный
Битрейт : 640 Кбит/сек
Каналы : 6 каналов
Расположение каналов : Front: L C R, Side: L R, LFE
Частота : 48,0 КГц
Битовая глубина : 16 бит
Метод сжатия : С потерями
Размер потока : 640 Мбайт (8%)
Заголовок : Дубляж
Язык : Russian
Default : Да
Forced : Нет

Аудио #2
Идентификатор : 3
Формат : AC-3
Формат/Информация : Audio Coding 3
Расширение режима : CM (complete main)
Параметр Endianness формата : Big
Идентификатор кодека : A_AC3
Продолжительность : 2 ч. 19 м.
Вид битрейта : Постоянный
Битрейт : 640 Кбит/сек
Каналы : 6 каналов
Расположение каналов : Front: L C R, Side: L R, LFE
Частота : 48,0 КГц
Битовая глубина : 16 бит
Метод сжатия : С потерями
Размер потока : 640 Мбайт (8%)
Заголовок : Оригинал
Язык : English
Default : Нет
Forced : Нет

Текст #1
Идентификатор : 4
Формат : UTF-8
Идентификатор кодека : S_TEXT/UTF8
Идентификатор кодека/Информация : UTF-8 Plain Text
Язык : Russian
Default : Нет
Forced : Нет

Текст #2
Идентификатор : 5
Формат : UTF-8
Идентификатор кодека : S_TEXT/UTF8
Идентификатор кодека/Информация : UTF-8 Plain Text
Язык : English
Default : Нет
Forced : Нет

Меню
00:00:00.000 : :Prison Break
00:07:19.605 : :Running From the Law
00:12:50.269 : :Making Money
00:20:19.092 : :Billie
00:25:53.468 : :Modern Methods
00:31:33.850 : :You're with Me Now
00:36:44.160 : :Giving the Slip
00:42:13.489 : :Sending for Backup
00:47:59.543 : :Behind Bars
00:53:26.661 : :The People's Hero
01:00:42.472 : :Busting Out
01:08:18.052 : :Bad for Business
01:15:23.185 : :Times Change
01:21:45.483 : :Let 'em Have It!
01:33:49.206 : :What If?
01:40:54.423 : :Captured
01:48:13.528 : :Inside Information
01:53:15.872 : :What's The Score?
01:58:32.021 : :Bye Bye Blackbird
02:11:25.335 : :End Titles
02:19:43.124 : :

pb.wtf



Скачать Джонни Д через торрент http://pic.kartinco.top/images/3/out5xp8bpo.jpg Скачать фильм Джонни Д через торрент бесплантно в хорошем качестве Описание: Сюжет фильма повествует о легендарном грабителе банков Джоне Диллинджере. Дерзкие нападения сделали его выдающимся героем для ... 10 10 15
Info! Золотая раздача, скачанное не засчитывается.
Торрент: Зарегистрирован [2013-08-16 19:07] · скачан: 166 раз
Статус: √ проверено
Размер: 7.76 GB
Как cкачать? Как скачать Джонни Д через торрент | qTorrent

% Раздел Тема Автор DL S | L
Фильмы (Blu-ray, BD-Remux, HDDVD) [ 22.19 GB ] Джонни Д. / Public Enemies [2009 BD Remux ] Бумер Скачать
1 | 0
Фильмы (Blu-ray, BD-Remux, HDDVD) [ 39.01 GB ] Джонни Д. / Public Enemies [2009 биография Blu-ray CEE 1080p] DUB Ворон Скачать
1 | 0
Фильмы 2009 [ 1.98 GB ] Джонни Д / Public Enemies [2009 HDRip][ лицензия ] SD Скачать
1 | 1
Фильмы [HD 720p, 1080p] (Хороший звук DUB, MVO) [ 13.14 GB ] Джонни Д. / Public Enemies [2009 биография BDRip 720p] DUB AVO VO _denis_100 Скачать
2 | 0
Фильмы 2009 [ 1.46 GB ] Враги народа / Джонни Д / Public Enemies [2009 биография история. HDRip]Гоблин azagoth_666 Скачать
1 | 0
Фильмы [HD 720p, 1080p] (Хороший звук DUB, MVO) [ 12.7 GB ] Джонни Д / Public Enemies [1080] [2009 биография история BDRip] SLAYERMADES Скачать
1 | 0
Фильмы 2009 [ 2.1 GB ] Джонни Д / Public Enemies [2009 биография история BDRip] [720p-AVC] stalonе Скачать
2 | 0

28-11-2019 20:33  

Отключить всю рекламу на сайте

    Дорогой пользователь! Огромная просьба, поблагодарите релизера, оцените раздачу и оставьте свои комментарий, если Вы скачали Джонни Д через торрент бесплатно! Внесите свою лепту в развитие PiratBit!
    Комментировать посты могут только пользователи прошедшие не сложную регистрацию
    Показать сообщения:    

    Джонни Д через торрент
    Скачать бесплатно Джонни Д
    Джонни Д скачать торрент
    Джонни Д смотреть онлайн
    Cкачать фильм Джонни Д бесплатно
    Джонни Д скачать торрент в хорошем качестве
    Джонни Д смотреть онлайн бесплатно в хорошем качестве


    Вы не можете начинать темы
    Вы не можете отвечать на сообщения
    Вы не можете редактировать свои сообщения
    Вы не можете удалять свои сообщения
    Вы не можете голосовать в опросах
    Вы не можете прикреплять файлы к сообщениям
    Вы можете скачивать файлы